<?xml version="1.0" standalone="no"?>
<!DOCTYPE svg PUBLIC "-//W3C//DTD SVG 1.1//EN" "http://www.w3.org/Graphics/SVG/1.1/DTD/svg11.dtd" >
<svg>
<metadata>
Created by FontForge 20090914 at Fri Apr 22 00:29:18 2011
 By apache
Copyright (c) 2010 by Brian J. Bonislawsky DBA Astigmatic (AOETI). All rights reserved. Available under the Apache 2.0 licence.
http://www.apache.org/licenses/LICENSE-2.0.html
</metadata>
<defs>
<font id="Syncopate-Regular" horiz-adv-x="1864" >
  <font-face 
    font-family="Syncopate"
    font-weight="300"
    font-stretch="expanded"
    units-per-em="2048"
    panose-1="2 0 5 5 0 0 0 2 0 3"
    ascent="1638"
    descent="-410"
    x-height="1374"
    cap-height="1374"
    bbox="-410 -483 3344 1853"
    underline-thickness="102"
    underline-position="-103"
    unicode-range="U+0020-U+FB02"
  />
<missing-glyph horiz-adv-x="2048" 
 />
    <glyph glyph-name=".notdef" horiz-adv-x="2048" 
 />
    <glyph glyph-name="A" unicode="A" horiz-adv-x="1665" 
d="M1489 0l-189 362h-933l-189 -362h-137l719 1374h147l719 -1374h-137zM834 1253l-406 -776h811z" />
    <glyph glyph-name="B" unicode="B" horiz-adv-x="1714" 
d="M1593 379q0 -80 -21 -139t-58.5 -101.5t-90 -69t-115.5 -42t-135 -21.5t-149 -6h-793v1374h775q59 0 118 -5t113.5 -18.5t101 -37.5t81 -63t54 -94t19.5 -130q0 -67 -16.5 -116t-50 -84t-85.5 -57.5t-122 -35.5q100 -7 171 -34t116 -72t66 -107.5t21 -140.5zM1376 1024
q0 29 -4 58t-18 55.5t-40.5 49.5t-72.5 39.5t-113.5 26t-162.5 9.5h-609v-480h609q135 0 216 19.5t124.5 52.5t57 77t13.5 93zM1462 381q0 78 -27 133t-83 90t-144 51.5t-209 16.5h-643v-559h660q125 0 210.5 14.5t138 47t75 83.5t22.5 123z" />
    <glyph glyph-name="C" unicode="C" horiz-adv-x="1780" 
d="M1640 109q-72 -30 -142.5 -55t-146.5 -43t-160 -28t-183 -10q-122 0 -234.5 20t-209.5 60t-176 99.5t-135.5 138.5t-87 178t-30.5 217t30.5 217t87 178t135.5 138.5t176 99.5t209 60t235 20q99 0 183 -10t160 -28t146.5 -42.5t142.5 -54.5v-150q-57 36 -122 68t-140.5 56
t-161.5 38t-184 14q-198 0 -343 -43t-239.5 -121.5t-140 -190t-45.5 -249.5t45.5 -249t140 -189.5t239.5 -121t343 -42.5q98 0 185.5 14t164 38t141 55.5t117.5 66.5v-149v0z" />
    <glyph glyph-name="D" unicode="D" 
d="M1731 688q0 -132 -27.5 -234.5t-77.5 -178.5t-121.5 -129t-159 -85t-190 -46.5t-215.5 -14.5h-709v1374h707q169 0 314 -33t251.5 -112.5t167 -211.5t60.5 -329zM1602 688q0 112 -22 198t-63 149.5t-100 106.5t-133 69.5t-161 37.5t-185 11h-582v-1145h582
q147 0 269 26.5t209.5 92t136.5 176t49 278.5z" />
    <glyph glyph-name="E" unicode="E" horiz-adv-x="1546" 
d="M231 0v1374h1145v-117h-1009v-473h958v-116h-958v-551h1024v-117h-1160z" />
    <glyph glyph-name="F" unicode="F" horiz-adv-x="1409" 
d="M356 1257v-473h914v-116h-914v-668h-125v1374h1088v-117h-963z" />
    <glyph glyph-name="G" unicode="G" 
d="M1040 1399q95 0 177 -9.5t157 -27t146 -42t143 -54.5v-152q-57 36 -121.5 68t-139 56t-160 38t-183.5 14q-200 0 -349 -42t-248 -120t-148.5 -190t-49.5 -252q0 -131 48.5 -241.5t147 -190.5t246.5 -125t347 -45q78 0 154.5 6t144.5 15.5t124 21t95 23.5v417h-559v117
h684v-604q-74 -26 -149.5 -46t-156 -33.5t-167 -20.5t-181.5 -7q-194 0 -360 43.5t-287.5 132t-190.5 222.5t-69 315q0 121 32 220.5t90.5 179t141 138.5t183 97.5t216.5 58t242 19.5z" />
    <glyph glyph-name="H" unicode="H" horiz-adv-x="1944" 
d="M1587 0v666h-1231v-666h-125v1374h125v-592h1231v592h125v-1374h-125z" />
    <glyph glyph-name="I" unicode="I" horiz-adv-x="588" 
d="M231 0v1374h125v-1374h-125z" />
    <glyph glyph-name="J" unicode="J" horiz-adv-x="1210" 
d="M985 440q0 -114 -40 -199.5t-112 -142.5t-172 -85.5t-221 -28.5q-75 0 -138 6.5t-116.5 16.5t-99 21.5l-86.5 22.5v129q42 -16 87 -31t101 -27t125.5 -19t159.5 -7q81 0 151.5 22.5t123 66t82.5 106t30 143.5v940h125v-934z" />
    <glyph glyph-name="K" unicode="K" horiz-adv-x="1651" 
d="M358 727l1022 647h174l-1007 -659l1069 -715h-213l-1045 700v-700h-127v1374h127v-647z" />
    <glyph glyph-name="L" unicode="L" horiz-adv-x="1436" 
d="M231 0v1374h125v-1257h1004v-117h-1129z" />
    <glyph glyph-name="M" unicode="M" horiz-adv-x="2333" 
d="M1978 0v1169l-755 -1169h-111l-756 1174v-1174h-125v1374h134l806 -1245l797 1245h133v-1374h-123z" />
    <glyph glyph-name="N" unicode="N" horiz-adv-x="1917" 
d="M1550 0l-1194 1210v-1210h-125v1374h138l1194 -1214v1214h123v-1374h-136z" />
    <glyph glyph-name="O" unicode="O" horiz-adv-x="2015" 
d="M1880 686q0 -185 -67 -319.5t-184 -222t-276 -129.5t-343 -42q-185 0 -345 42t-278 129.5t-185 222t-67 319.5q0 123 31 223.5t87 180t135.5 137.5t177 96.5t209.5 57t235 18.5q184 0 343 -42t276 -129.5t184 -222t67 -319.5zM1751 686q0 146 -47.5 258t-140.5 188.5
t-231.5 116t-321.5 39.5t-322.5 -40t-233.5 -116.5t-142 -189t-48 -256.5q0 -146 48 -258t142 -188.5t233.5 -116t322.5 -39.5t321.5 39.5t231.5 116t140.5 188.5t47.5 258z" />
    <glyph glyph-name="P" unicode="P" horiz-adv-x="1677" 
d="M1571 952q0 -103 -33.5 -182t-105.5 -133t-185.5 -81.5t-273.5 -27.5h-617v-528h-125v1374h742q160 0 273.5 -27.5t185.5 -80.5t105.5 -132t33.5 -182zM1442 952q0 98 -32.5 158t-100 92.5t-171 43.5t-245.5 11h-537v-612h537q55 0 117.5 -0.5t123.5 6t116.5 23t98 50.5
t68 89t25.5 139z" />
    <glyph glyph-name="Q" unicode="Q" horiz-adv-x="2015" 
d="M1880 686q0 -174 -59 -302t-162 -216q90 -28 176.5 -51t167.5 -37l-49 -125q-97 25 -203.5 61l-208.5 74q-109 -60 -244.5 -88.5t-287.5 -28.5q-185 0 -345 42t-278 129.5t-185 222t-67 319.5q0 123 31 223.5t87 180t135.5 137.5t177 96.5t209.5 57t235 18.5
q184 0 343 -42t276 -129.5t184 -222t67 -319.5zM1751 686q0 146 -47.5 258t-140.5 188.5t-231.5 116t-321.5 39.5t-322.5 -40t-233.5 -116.5t-142 -189t-48 -256.5q0 -146 48 -258t142 -188.5t233.5 -116t322.5 -39.5q230 0 389 61l-112 46.5l-89 38.5l-80 36l49 101
q81 -41 172.5 -80t190.5 -74q109 77 165 195.5t56 277.5z" />
    <glyph glyph-name="R" unicode="R" horiz-adv-x="1706" 
d="M356 588v-588h-125v1374h684q157 0 269 -24.5t183.5 -74t104.5 -123.5t33 -173q0 -154 -81 -246.5t-261 -126.5l469 -606h-157l-443 592q-28 -2 -57 -3t-60 -1h-559zM1376 979q0 88 -31 142.5t-101 84.5t-183.5 40.5t-278.5 10.5h-426v-552h422q165 0 279 9.5t185 39
t102.5 83t31.5 142.5z" />
    <glyph glyph-name="S" unicode="S" horiz-adv-x="1612" 
d="M1341 1171q-39 19 -90 40.5t-116.5 38.5t-147.5 28.5t-182 11.5q-121 0 -215.5 -14t-160 -43.5t-100 -74.5t-34.5 -107q0 -52 32.5 -91t88 -69t130 -54.5t158 -46l172 -43.5t172 -47.5t158 -57t130 -73.5t88 -96t32.5 -125q0 -77 -29 -134.5t-78.5 -99t-116 -69
t-142 -43.5t-156 -22.5t-158.5 -6.5q-179 0 -324.5 26t-277.5 71v153q136 -81 287.5 -111t318.5 -30q118 0 218 14t173 44.5t113.5 79.5t40.5 120q0 57 -32.5 100t-88 75.5t-130 57.5t-157.5 46.5t-171.5 42t-171.5 44.5t-157.5 54t-130 70.5t-88 93.5t-32.5 123
q0 69 26 122.5t71.5 92.5t106.5 65.5t130.5 42t144.5 22.5t148 7q80 0 151.5 -7t138 -18.5t130 -26.5t128.5 -32v-144z" />
    <glyph glyph-name="T" unicode="T" horiz-adv-x="1452" 
d="M788 1260v-1260h-124v1260h-625v114h1374v-114h-625z" />
    <glyph glyph-name="U" unicode="U" horiz-adv-x="1825" 
d="M1606 432q0 -103 -43.5 -187.5t-130 -145t-216.5 -93.5t-303 -33t-303 33t-217 93.5t-130.5 145t-43.5 187.5v942h125v-952q0 -69 36.5 -130.5t108.5 -107.5t178 -73t246 -27q139 0 245 27t178 73t108.5 107.5t36.5 130.5v952h125v-942v0z" />
    <glyph glyph-name="V" unicode="V" horiz-adv-x="1675" 
d="M928 0h-187l-686 1374h140l643 -1288l643 1288h139z" />
    <glyph glyph-name="W" unicode="W" horiz-adv-x="2593" 
d="M1380 1374l490 -1274l508 1274h139l-553 -1374h-186l-482 1241l-481 -1241h-186l-553 1374h139l508 -1274l489 1274h168z" />
    <glyph glyph-name="X" unicode="X" horiz-adv-x="1683" 
d="M842 621l-592 -621h-158l672 705l-639 669h158l559 -588l561 588h158l-639 -669l671 -705h-157z" />
    <glyph glyph-name="Y" unicode="Y" horiz-adv-x="1563" 
d="M844 582v-582h-125v582l-645 792h149l559 -688l557 688h150z" />
    <glyph glyph-name="Z" unicode="Z" horiz-adv-x="1491" 
d="M147 0v102l996 1155h-969v117h1163v-67l-1026 -1190h1047v-117h-1211z" />
    <glyph glyph-name="a" unicode="a" horiz-adv-x="1819" 
d="M1475 0v152q-72 -39 -163.5 -72t-193 -57t-208.5 -37t-210 -13q-134 0 -240.5 24t-180.5 71.5t-114 118t-40 163.5q0 92 46.5 162.5t132.5 123t207.5 89t271.5 62t324.5 42t367.5 27.5v105q0 64 -24 113t-67 85.5t-101 61t-125.5 39.5t-142 21.5t-149.5 6.5
q-101 0 -184 -10t-155 -27.5t-138 -40.5t-133 -49v146q139 37 296.5 64.5t334.5 27.5q150 0 280 -25.5t226 -81.5t151 -144.5t55 -215.5v-932h-124zM1475 745q-327 -18 -558.5 -51t-378.5 -81t-215.5 -112t-68.5 -145q0 -66 33.5 -117t96.5 -85.5t153 -52t202 -17.5
q66 0 136.5 7.5t140.5 21t138 32t128 40.5t109.5 47t83.5 51v462z" />
    <glyph glyph-name="b" unicode="b" horiz-adv-x="1714" 
d="M1593 379q0 -80 -21 -139t-58.5 -101.5t-90 -69t-115.5 -42t-135 -21.5t-149 -6h-793v1374h775q59 0 118 -5t113.5 -18.5t101 -37.5t81 -63t54 -94t19.5 -130q0 -67 -16.5 -116t-50 -84t-85.5 -57.5t-122 -35.5q100 -7 171 -34t116 -72t66 -107.5t21 -140.5zM1376 1024
q0 29 -4 58t-18 55.5t-40.5 49.5t-72.5 39.5t-113.5 26t-162.5 9.5h-609v-480h609q135 0 216 19.5t124.5 52.5t57 77t13.5 93zM1462 381q0 78 -27 133t-83 90t-144 51.5t-209 16.5h-643v-559h660q125 0 210.5 14.5t138 47t75 83.5t22.5 123z" />
    <glyph glyph-name="c" unicode="c" horiz-adv-x="1780" 
d="M1640 109q-72 -30 -142.5 -55t-146.5 -43t-160 -28t-183 -10q-122 0 -234.5 20t-209.5 60t-176 99.5t-135.5 138.5t-87 178t-30.5 217t30.5 217t87 178t135.5 138.5t176 99.5t209 60t235 20q99 0 183 -10t160 -28t146.5 -42.5t142.5 -54.5v-150q-57 36 -122 68t-140.5 56
t-161.5 38t-184 14q-198 0 -343 -43t-239.5 -121.5t-140 -190t-45.5 -249.5t45.5 -249t140 -189.5t239.5 -121t343 -42.5q98 0 185.5 14t164 38t141 55.5t117.5 66.5v-149v0z" />
    <glyph glyph-name="d" unicode="d" 
d="M1731 688q0 -132 -27.5 -234.5t-77.5 -178.5t-121.5 -129t-159 -85t-190 -46.5t-215.5 -14.5h-709v1374h707q169 0 314 -33t251.5 -112.5t167 -211.5t60.5 -329zM1602 688q0 112 -22 198t-63 149.5t-100 106.5t-133 69.5t-161 37.5t-185 11h-582v-1145h582
q147 0 269 26.5t209.5 92t136.5 176t49 278.5z" />
    <glyph glyph-name="e" unicode="e" 
d="M1616 72q-84 -26 -156 -44.5t-142 -30t-142.5 -17t-159.5 -5.5q-202 0 -365 49t-277.5 140.5t-176.5 221.5t-62 292q0 157 59.5 288t166.5 225t256 146t329 52q187 0 333 -50t246 -143t152 -225.5t52 -298.5v-31h-1465q11 -128 64 -231t150.5 -175t240 -110.5
t332.5 -38.5q81 0 164 11t159 29.5t139 42t103 48.5v-145zM1606 750q-7 105 -47 200.5t-119.5 168.5t-202 116t-293.5 43q-161 0 -282 -43t-205 -115.5t-132 -168t-61 -201.5h1342z" />
    <glyph glyph-name="f" unicode="f" horiz-adv-x="1675" 
d="M934 1257q-151 0 -260 -20.5t-179.5 -63.5t-104.5 -110t-34 -160v-153h1174v-117h-1174v-633h-125v924q0 106 37.5 190t119.5 141.5t210.5 88t310.5 30.5h641v-117h-616z" />
    <glyph glyph-name="g" unicode="g" 
d="M1040 1399q95 0 177 -9.5t157 -27t146 -42t143 -54.5v-152q-57 36 -121.5 68t-139 56t-160 38t-183.5 14q-200 0 -349 -42t-248 -120t-148.5 -190t-49.5 -252q0 -131 48.5 -241.5t147 -190.5t246.5 -125t347 -45q78 0 154.5 6t144.5 15.5t124 21t95 23.5v417h-559v117
h684v-604q-74 -26 -149.5 -46t-156 -33.5t-167 -20.5t-181.5 -7q-194 0 -360 43.5t-287.5 132t-190.5 222.5t-69 315q0 121 32 220.5t90.5 179t141 138.5t183 97.5t216.5 58t242 19.5z" />
    <glyph glyph-name="h" unicode="h" horiz-adv-x="1944" 
d="M1587 0v666h-1231v-666h-125v1374h125v-592h1231v592h125v-1374h-125z" />
    <glyph glyph-name="i" unicode="i" horiz-adv-x="588" 
d="M231 0v1374h125v-1374h-125z" />
    <glyph glyph-name="j" unicode="j" horiz-adv-x="1210" 
d="M985 440q0 -114 -40 -199.5t-112 -142.5t-172 -85.5t-221 -28.5q-75 0 -138 6.5t-116.5 16.5t-99 21.5l-86.5 22.5v129q42 -16 87 -31t101 -27t125.5 -19t159.5 -7q81 0 151.5 22.5t123 66t82.5 106t30 143.5v940h125v-934z" />
    <glyph glyph-name="k" unicode="k" horiz-adv-x="1776" 
d="M1520 0q-10 112 -55 202.5t-115.5 160.5t-161.5 120.5t-193 83.5t-211 48.5t-215 15.5h-213v-631h-125v1374h125v-633h179q107 0 213 19.5t202.5 57t180 92t147.5 125t105 155.5t51 184h129q-10 -109 -48.5 -197.5t-94.5 -159.5t-125 -124.5t-140 -92t-139 -64
t-123 -38.5q69 -11 149.5 -33.5t161 -60t156.5 -92t136.5 -128.5t101.5 -169t51 -215h-129z" />
    <glyph glyph-name="l" unicode="l" horiz-adv-x="1454" 
d="M356 475q0 -93 15 -160t63 -110t138.5 -63.5t240.5 -20.5h621v-121h-646q-165 0 -272.5 26.5t-171 82t-88.5 140.5t-25 202v923h125v-899z" />
    <glyph glyph-name="m" unicode="m" horiz-adv-x="2552" 
d="M356 1374v-211l98 81t119 79t141 60t163 24q139 0 246 -62.5t173 -193.5q64 59 132 106.5t139.5 80.5t147.5 51t157 18q103 0 187.5 -35t143.5 -96t91.5 -143.5t32.5 -176.5v-956h-125v924q0 86 -20.5 153.5t-64 114.5t-111 71.5t-161.5 24.5q-75 0 -148.5 -21.5
t-140.5 -57t-125 -80.5t-102 -93q5 -28 5.5 -48t0.5 -48v-940h-125v924q0 102 -27 171.5t-75 112.5t-113.5 61.5t-142.5 18.5q-73 0 -144.5 -25t-136.5 -65t-120 -89.5t-95 -98.5v-1010h-125v1374h125z" />
    <glyph glyph-name="n" unicode="n" horiz-adv-x="1911" 
d="M1561 0v907q0 114 -30.5 187.5t-87 116.5t-137.5 60t-182 17q-117 0 -229.5 -28.5t-212.5 -72t-184 -96.5t-142 -102v-989h-125v1374h125v-241l154.5 92.5t182 89t208.5 66.5t234 26q139 0 242.5 -33.5t172 -95t102.5 -149t34 -195.5v-934h-125z" />
    <glyph glyph-name="o" unicode="o" horiz-adv-x="2015" 
d="M1880 686q0 -185 -67 -319.5t-184 -222t-276 -129.5t-343 -42q-185 0 -345 42t-278 129.5t-185 222t-67 319.5q0 123 31 223.5t87 180t135.5 137.5t177 96.5t209.5 57t235 18.5q184 0 343 -42t276 -129.5t184 -222t67 -319.5zM1751 686q0 146 -47.5 258t-140.5 188.5
t-231.5 116t-321.5 39.5t-322.5 -40t-233.5 -116.5t-142 -189t-48 -256.5q0 -146 48 -258t142 -188.5t233.5 -116t322.5 -39.5t321.5 39.5t231.5 116t140.5 188.5t47.5 258z" />
    <glyph glyph-name="p" unicode="p" horiz-adv-x="1677" 
d="M1571 952q0 -103 -33.5 -182t-105.5 -133t-185.5 -81.5t-273.5 -27.5h-617v-528h-125v1374h742q160 0 273.5 -27.5t185.5 -80.5t105.5 -132t33.5 -182zM1442 952q0 98 -32.5 158t-100 92.5t-171 43.5t-245.5 11h-537v-612h537q55 0 117.5 -0.5t123.5 6t116.5 23t98 50.5
t68 89t25.5 139z" />
    <glyph glyph-name="q" unicode="q" horiz-adv-x="2015" 
d="M1880 686q0 -178 -62 -308.5t-169 -217.5q68 -15 130 -26.5t110 -19.5q56 -10 106 -16l-47 -131l-449 101q-105 -48 -228.5 -71.5t-260.5 -23.5q-185 0 -345 42t-278 129.5t-185 222t-67 319.5q0 123 31 223.5t87 180t135.5 137.5t177 96.5t209.5 57t235 18.5
q184 0 343 -42t276 -129.5t184 -222t67 -319.5zM1751 686q0 146 -47.5 258t-140.5 188.5t-231.5 116t-321.5 39.5t-322.5 -40t-233.5 -116.5t-142 -189t-48 -256.5q0 -146 48 -258t142 -188.5t233.5 -116t322.5 -39.5t321.5 39.5t231.5 116t140.5 188.5t47.5 258z" />
    <glyph glyph-name="r" unicode="r" horiz-adv-x="1249" 
d="M1249 1268q-29 9 -80.5 19.5t-132.5 10.5q-112 0 -210.5 -27.5t-183 -74.5t-156.5 -109.5t-130 -132.5v-954h-125v1374h125v-280q67 69 145.5 127t165.5 99.5t182.5 65t197.5 23.5q35 0 63 -1.5t51.5 -4t44.5 -5.5t43 -7v-123v0z" />
    <glyph glyph-name="s" unicode="s" horiz-adv-x="1612" 
d="M1341 1171q-39 19 -90 40.5t-116.5 38.5t-147.5 28.5t-182 11.5q-121 0 -215.5 -14t-160 -43.5t-100 -74.5t-34.5 -107q0 -52 32.5 -91t88 -69t130 -54.5t158 -46l172 -43.5t172 -47.5t158 -57t130 -73.5t88 -96t32.5 -125q0 -77 -29 -134.5t-78.5 -99t-116 -69
t-142 -43.5t-156 -22.5t-158.5 -6.5q-179 0 -324.5 26t-277.5 71v153q136 -81 287.5 -111t318.5 -30q118 0 218 14t173 44.5t113.5 79.5t40.5 120q0 57 -32.5 100t-88 75.5t-130 57.5t-157.5 46.5t-171.5 42t-171.5 44.5t-157.5 54t-130 70.5t-88 93.5t-32.5 123
q0 69 26 122.5t71.5 92.5t106.5 65.5t130.5 42t144.5 22.5t148 7q80 0 151.5 -7t138 -18.5t130 -26.5t128.5 -32v-144z" />
    <glyph glyph-name="t" unicode="t" horiz-adv-x="1452" 
d="M788 1260v-1260h-124v1260h-625v114h1374v-114h-625z" />
    <glyph glyph-name="u" unicode="u" horiz-adv-x="1907" 
d="M352 1374v-907q-1 -115 29 -189t86.5 -116.5t137 -59t181.5 -16.5q117 0 229 28.5t211 72t181.5 96.5t140.5 102v989h127v-1374h-127v242q-70 -45 -153 -93.5t-179.5 -89t-206.5 -66.5t-233 -26q-139 0 -242.5 35t-172 98t-102.5 149.5t-34 190.5v934h127z" />
    <glyph glyph-name="v" unicode="v" horiz-adv-x="1675" 
d="M928 0h-187l-686 1374h140l643 -1288l643 1288h139z" />
    <glyph glyph-name="w" unicode="w" horiz-adv-x="2593" 
d="M1380 1374l490 -1274l508 1274h139l-553 -1374h-186l-482 1241l-481 -1241h-186l-553 1374h139l508 -1274l489 1274h168z" />
    <glyph glyph-name="x" unicode="x" horiz-adv-x="1683" 
d="M842 621l-592 -621h-158l672 705l-639 669h158l559 -588l561 588h158l-639 -669l671 -705h-157z" />
    <glyph glyph-name="y" unicode="y" horiz-adv-x="1866" 
d="M1634 502q0 -135 -63 -233.5t-173.5 -163.5t-261 -96.5t-325.5 -31.5q-190 0 -349 24.5t-278 68.5v145q64 -27 132 -50t145 -40.5t164.5 -27t189.5 -9.5q144 0 270 27.5t219.5 80t148 129.5t54.5 177v260q-48 -65 -117.5 -124.5t-155 -105t-185.5 -73t-211 -27.5
q-126 0 -223.5 23.5t-170 64.5t-122.5 97.5t-80.5 123t-44 139.5t-13.5 148v346h127v-319q0 -115 27.5 -209t90.5 -161t165.5 -103.5t253.5 -36.5q117 0 215 31.5t179 85t147 123.5t118 147v442h127v-872z" />
    <glyph glyph-name="z" unicode="z" horiz-adv-x="1491" 
d="M147 0v102l996 1155h-969v117h1163v-67l-1026 -1190h1047v-117h-1211z" />
    <glyph glyph-name="fi" unicode="&#xfb01;" horiz-adv-x="2263" 
d="M934 1257q-151 0 -260 -20.5t-179.5 -63.5t-104.5 -110t-34 -160v-153h1174v-117h-1174v-633h-125v924q0 106 37.5 190t119.5 141.5t210.5 88t310.5 30.5h641v-117h-616zM1906 0v1374h125v-1374h-125z" />
    <glyph glyph-name="fl" unicode="&#xfb02;" horiz-adv-x="3129" 
d="M934 1257q-151 0 -260 -20.5t-179.5 -63.5t-104.5 -110t-34 -160v-153h1174v-117h-1174v-633h-125v924q0 106 37.5 190t119.5 141.5t210.5 88t310.5 30.5h641v-117h-616zM2031 475q0 -93 15 -160t63 -110t138.5 -63.5t240.5 -20.5h621v-121h-646q-165 0 -272.5 26.5
t-171 82t-88.5 140.5t-25 202v923h125v-899z" />
    <glyph glyph-name="germandbls" unicode="&#xdf;" horiz-adv-x="1769" 
d="M510 188q34 -13 86.5 -30t117.5 -32.5t139.5 -26.5t152.5 -11q101 0 193.5 17t163 53.5t112 93.5t41.5 137q0 85 -50.5 148t-135.5 104t-198 61.5t-237 20.5h-256v106h256q40 0 93 2t109 9.5t110 22.5t97 40.5t69 63.5t26 92q0 51 -34.5 96t-100.5 78.5t-162 53.5
t-219 20t-213.5 -18.5t-153.5 -48.5t-102.5 -68.5t-61 -78.5t-29.5 -78t-8 -67v-948h-125v940q0 89 38.5 174.5t120.5 152t209.5 107.5t305.5 41q153 0 276 -23.5t209 -68.5t132.5 -110.5t46.5 -149.5q0 -65 -27 -113.5t-68 -83t-88.5 -56t-89.5 -30.5q86 -15 158 -48
t124 -82t81 -112.5t29 -138.5q0 -93 -42.5 -170.5t-122 -132.5t-192.5 -85.5t-254 -30.5q-104 0 -190 8.5t-153 19.5t-113 21.5t-70 15.5v143v0z" />
    <glyph glyph-name="Agrave" unicode="&#xc0;" horiz-adv-x="1665" 
d="M1489 0l-189 362h-933l-189 -362h-137l719 1374h147l719 -1374h-137zM834 1253l-406 -776h811zM531 1792l430 -213l-41 -78l-441 186z" />
    <glyph glyph-name="agrave" unicode="&#xe0;" horiz-adv-x="1819" 
d="M1475 0v152q-72 -39 -163.5 -72t-193 -57t-208.5 -37t-210 -13q-134 0 -240.5 24t-180.5 71.5t-114 118t-40 163.5q0 92 46.5 162.5t132.5 123t207.5 89t271.5 62t324.5 42t367.5 27.5v105q0 64 -24 113t-67 85.5t-101 61t-125.5 39.5t-142 21.5t-149.5 6.5
q-101 0 -184 -10t-155 -27.5t-138 -40.5t-133 -49v146q139 37 296.5 64.5t334.5 27.5q150 0 280 -25.5t226 -81.5t151 -144.5t55 -215.5v-932h-124zM1475 745q-327 -18 -558.5 -51t-378.5 -81t-215.5 -112t-68.5 -145q0 -66 33.5 -117t96.5 -85.5t153 -52t202 -17.5
q66 0 136.5 7.5t140.5 21t138 32t128 40.5t109.5 47t83.5 51v462zM598 1792l430 -213l-41 -78l-441 186z" />
    <glyph glyph-name="Aacute" unicode="&#xc1;" horiz-adv-x="1665" 
d="M1489 0l-189 362h-933l-189 -362h-137l719 1374h147l719 -1374h-137zM834 1253l-406 -776h811zM1188 1687l-440 -186l-39 78l428 213z" />
    <glyph glyph-name="aacute" unicode="&#xe1;" horiz-adv-x="1819" 
d="M1475 0v152q-72 -39 -163.5 -72t-193 -57t-208.5 -37t-210 -13q-134 0 -240.5 24t-180.5 71.5t-114 118t-40 163.5q0 92 46.5 162.5t132.5 123t207.5 89t271.5 62t324.5 42t367.5 27.5v105q0 64 -24 113t-67 85.5t-101 61t-125.5 39.5t-142 21.5t-149.5 6.5
q-101 0 -184 -10t-155 -27.5t-138 -40.5t-133 -49v146q139 37 296.5 64.5t334.5 27.5q150 0 280 -25.5t226 -81.5t151 -144.5t55 -215.5v-932h-124zM1475 745q-327 -18 -558.5 -51t-378.5 -81t-215.5 -112t-68.5 -145q0 -66 33.5 -117t96.5 -85.5t153 -52t202 -17.5
q66 0 136.5 7.5t140.5 21t138 32t128 40.5t109.5 47t83.5 51v462zM1255 1687l-440 -186l-39 78l428 213z" />
    <glyph glyph-name="Acircumflex" unicode="&#xc2;" horiz-adv-x="1665" 
d="M1489 0l-189 362h-933l-189 -362h-137l719 1374h147l719 -1374h-137zM834 1253l-406 -776h811zM1182 1501l-348 159l-348 -159l-39 71l387 220l387 -220z" />
    <glyph glyph-name="acircumflex" unicode="&#xe2;" horiz-adv-x="1819" 
d="M1475 0v152q-72 -39 -163.5 -72t-193 -57t-208.5 -37t-210 -13q-134 0 -240.5 24t-180.5 71.5t-114 118t-40 163.5q0 92 46.5 162.5t132.5 123t207.5 89t271.5 62t324.5 42t367.5 27.5v105q0 64 -24 113t-67 85.5t-101 61t-125.5 39.5t-142 21.5t-149.5 6.5
q-101 0 -184 -10t-155 -27.5t-138 -40.5t-133 -49v146q139 37 296.5 64.5t334.5 27.5q150 0 280 -25.5t226 -81.5t151 -144.5t55 -215.5v-932h-124zM1475 745q-327 -18 -558.5 -51t-378.5 -81t-215.5 -112t-68.5 -145q0 -66 33.5 -117t96.5 -85.5t153 -52t202 -17.5
q66 0 136.5 7.5t140.5 21t138 32t128 40.5t109.5 47t83.5 51v462zM1249 1501l-348 159l-348 -159l-39 71l387 220l387 -220z" />
    <glyph glyph-name="Atilde" unicode="&#xc3;" horiz-adv-x="1665" 
d="M1489 0l-189 362h-933l-189 -362h-137l719 1374h147l719 -1374h-137zM834 1253l-406 -776h811zM1188 1730q0 -26 -7.5 -64t-28.5 -73t-57.5 -59.5t-94.5 -24.5q-47 0 -92.5 19t-88 41.5l-81 41.5t-70.5 19q-30 0 -47.5 -15t-26.5 -35.5t-12 -40.5t-4 -30h-95q0 25 8 62.5
t29 73t58 60.5t96 25q39 0 82 -19t86.5 -41.5t84.5 -41.5t77 -19q30 0 47.5 15t26.5 35t12 40t4 31h94v0z" />
    <glyph glyph-name="atilde" unicode="&#xe3;" horiz-adv-x="1819" 
d="M1475 0v152q-72 -39 -163.5 -72t-193 -57t-208.5 -37t-210 -13q-134 0 -240.5 24t-180.5 71.5t-114 118t-40 163.5q0 92 46.5 162.5t132.5 123t207.5 89t271.5 62t324.5 42t367.5 27.5v105q0 64 -24 113t-67 85.5t-101 61t-125.5 39.5t-142 21.5t-149.5 6.5
q-101 0 -184 -10t-155 -27.5t-138 -40.5t-133 -49v146q139 37 296.5 64.5t334.5 27.5q150 0 280 -25.5t226 -81.5t151 -144.5t55 -215.5v-932h-124zM1475 745q-327 -18 -558.5 -51t-378.5 -81t-215.5 -112t-68.5 -145q0 -66 33.5 -117t96.5 -85.5t153 -52t202 -17.5
q66 0 136.5 7.5t140.5 21t138 32t128 40.5t109.5 47t83.5 51v462zM1255 1730q0 -26 -7.5 -64t-28.5 -73t-57.5 -59.5t-94.5 -24.5q-47 0 -92.5 19t-88 41.5l-81 41.5t-70.5 19q-30 0 -47.5 -15t-26.5 -35.5t-12 -40.5t-4 -30h-95q0 25 8 62.5t29 73t58 60.5t96 25
q39 0 82 -19t86.5 -41.5t84.5 -41.5t77 -19q30 0 47.5 15t26.5 35t12 40t4 31h94v0z" />
    <glyph glyph-name="Adieresis" unicode="&#xc4;" horiz-adv-x="1665" 
d="M1489 0l-189 362h-933l-189 -362h-137l719 1374h147l719 -1374h-137zM834 1253l-406 -776h811zM559 1521v148h148v-148h-148zM961 1521v148h147v-148h-147z" />
    <glyph glyph-name="adieresis" unicode="&#xe4;" horiz-adv-x="1819" 
d="M1475 0v152q-72 -39 -163.5 -72t-193 -57t-208.5 -37t-210 -13q-134 0 -240.5 24t-180.5 71.5t-114 118t-40 163.5q0 92 46.5 162.5t132.5 123t207.5 89t271.5 62t324.5 42t367.5 27.5v105q0 64 -24 113t-67 85.5t-101 61t-125.5 39.5t-142 21.5t-149.5 6.5
q-101 0 -184 -10t-155 -27.5t-138 -40.5t-133 -49v146q139 37 296.5 64.5t334.5 27.5q150 0 280 -25.5t226 -81.5t151 -144.5t55 -215.5v-932h-124zM1475 745q-327 -18 -558.5 -51t-378.5 -81t-215.5 -112t-68.5 -145q0 -66 33.5 -117t96.5 -85.5t153 -52t202 -17.5
q66 0 136.5 7.5t140.5 21t138 32t128 40.5t109.5 47t83.5 51v462zM626 1521v148h148v-148h-148zM1028 1521v148h147v-148h-147z" />
    <glyph glyph-name="Aring" unicode="&#xc5;" horiz-adv-x="1665" 
d="M1489 0l-189 362h-933l-189 -362h-137l719 1374h147l719 -1374h-137zM834 1253l-406 -776h811zM572 1665q0 43 18.5 78t53 59.5t83 37.5t107.5 13q58 0 106.5 -13t83 -37.5t53.5 -59.5t19 -78q0 -44 -19 -79t-53.5 -59.5t-83 -37.5t-106.5 -13q-59 0 -107.5 13t-83 37.5
t-53 59.5t-18.5 79zM674 1665q0 -41 37.5 -69t122.5 -28q84 0 120.5 28t36.5 69q0 40 -36.5 68t-120.5 28q-85 0 -122.5 -28t-37.5 -68z" />
    <glyph glyph-name="aring" unicode="&#xe5;" horiz-adv-x="1819" 
d="M1475 0v152q-72 -39 -163.5 -72t-193 -57t-208.5 -37t-210 -13q-134 0 -240.5 24t-180.5 71.5t-114 118t-40 163.5q0 92 46.5 162.5t132.5 123t207.5 89t271.5 62t324.5 42t367.5 27.5v105q0 64 -24 113t-67 85.5t-101 61t-125.5 39.5t-142 21.5t-149.5 6.5
q-101 0 -184 -10t-155 -27.5t-138 -40.5t-133 -49v146q139 37 296.5 64.5t334.5 27.5q150 0 280 -25.5t226 -81.5t151 -144.5t55 -215.5v-932h-124zM1475 745q-327 -18 -558.5 -51t-378.5 -81t-215.5 -112t-68.5 -145q0 -66 33.5 -117t96.5 -85.5t153 -52t202 -17.5
q66 0 136.5 7.5t140.5 21t138 32t128 40.5t109.5 47t83.5 51v462zM639 1665q0 43 18.5 78t53 59.5t83 37.5t107.5 13q58 0 106.5 -13t83 -37.5t53.5 -59.5t19 -78q0 -44 -19 -79t-53.5 -59.5t-83 -37.5t-106.5 -13q-59 0 -107.5 13t-83 37.5t-53 59.5t-18.5 79zM741 1665
q0 -41 37.5 -69t122.5 -28q84 0 120.5 28t36.5 69q0 40 -36.5 68t-120.5 28q-85 0 -122.5 -28t-37.5 -68z" />
    <glyph glyph-name="AE" unicode="&#xc6;" horiz-adv-x="2402" 
d="M1087 0v360h-686l-237 -360h-164l930 1374h1302v-117h-1009v-473h958v-116h-958v-551h1024v-117h-1160zM477 477h610v780h-94z" />
    <glyph glyph-name="ae" unicode="&#xe6;" horiz-adv-x="3178" 
d="M2951 72q-84 -26 -156 -44.5t-141.5 -30t-142.5 -17t-160 -5.5q-238 0 -419 66.5t-296 189.5q-127 -71 -241.5 -120.5t-226.5 -80t-226.5 -44t-241.5 -13.5q-134 0 -240.5 24t-180.5 71.5t-114 118t-40 163.5q0 92 46.5 162.5t132.5 123t207.5 89t271.5 62t324.5 42
t367.5 27.5v105q0 64 -24 113t-67 85.5t-101 61t-125.5 39.5t-142 21.5t-149.5 6.5q-101 0 -184 -10t-155 -27.5t-138 -40.5t-133 -49v146q139 37 296.5 64.5t334.5 27.5q129 0 243.5 -19t206 -59.5t155 -105.5t89.5 -156q51 77 123 138t161 104t194 65.5t222 22.5
q187 0 333 -50t246 -143t152 -225.5t52 -298.5v-31h-1465q11 -128 64 -231t150.5 -175t240 -110.5t332.5 -38.5q81 0 164.5 11t159 29.5t138.5 42t103 48.5v-145zM739 84q144 0 270.5 24t231 60.5t185.5 79.5t135 82q-91 149 -91 348q0 17 0.5 33.5t2.5 31.5
q-324 -18 -555 -51t-378.5 -81t-216.5 -111.5t-69 -143.5q0 -66 33.5 -117t96.5 -85.5t153 -52t202 -17.5zM2941 750q-7 105 -47 200.5t-119.5 168.5t-202 116t-293.5 43q-161 0 -282 -43t-205 -115.5t-132 -168t-61 -201.5h1342z" />
    <glyph glyph-name="AEacute" unicode="&#x1fc;" horiz-adv-x="2402" 
d="M1087 0v360h-686l-237 -360h-164l930 1374h1302v-117h-1009v-473h958v-116h-958v-551h1024v-117h-1160zM477 477h610v780h-94zM1868 1687l-440 -186l-39 78l428 213z" />
    <glyph glyph-name="aeacute" unicode="&#x1fd;" horiz-adv-x="3178" 
d="M2951 72q-84 -26 -156 -44.5t-141.5 -30t-142.5 -17t-160 -5.5q-238 0 -419 66.5t-296 189.5q-127 -71 -241.5 -120.5t-226.5 -80t-226.5 -44t-241.5 -13.5q-134 0 -240.5 24t-180.5 71.5t-114 118t-40 163.5q0 92 46.5 162.5t132.5 123t207.5 89t271.5 62t324.5 42
t367.5 27.5v105q0 64 -24 113t-67 85.5t-101 61t-125.5 39.5t-142 21.5t-149.5 6.5q-101 0 -184 -10t-155 -27.5t-138 -40.5t-133 -49v146q139 37 296.5 64.5t334.5 27.5q129 0 243.5 -19t206 -59.5t155 -105.5t89.5 -156q51 77 123 138t161 104t194 65.5t222 22.5
q187 0 333 -50t246 -143t152 -225.5t52 -298.5v-31h-1465q11 -128 64 -231t150.5 -175t240 -110.5t332.5 -38.5q81 0 164.5 11t159 29.5t138.5 42t103 48.5v-145zM739 84q144 0 270.5 24t231 60.5t185.5 79.5t135 82q-91 149 -91 348q0 17 0.5 33.5t2.5 31.5
q-324 -18 -555 -51t-378.5 -81t-216.5 -111.5t-69 -143.5q0 -66 33.5 -117t96.5 -85.5t153 -52t202 -17.5zM2941 750q-7 105 -47 200.5t-119.5 168.5t-202 116t-293.5 43q-161 0 -282 -43t-205 -115.5t-132 -168t-61 -201.5h1342zM1968 1687l-440 -186l-39 78l428 213z" />
    <glyph glyph-name="Amacron" unicode="&#x100;" horiz-adv-x="1665" 
d="M1489 0l-189 362h-933l-189 -362h-137l719 1374h147l719 -1374h-137zM834 1253l-406 -776h811zM559 1531v113h549v-113h-549z" />
    <glyph glyph-name="amacron" unicode="&#x101;" horiz-adv-x="1819" 
d="M1475 0v152q-72 -39 -163.5 -72t-193 -57t-208.5 -37t-210 -13q-134 0 -240.5 24t-180.5 71.5t-114 118t-40 163.5q0 92 46.5 162.5t132.5 123t207.5 89t271.5 62t324.5 42t367.5 27.5v105q0 64 -24 113t-67 85.5t-101 61t-125.5 39.5t-142 21.5t-149.5 6.5
q-101 0 -184 -10t-155 -27.5t-138 -40.5t-133 -49v146q139 37 296.5 64.5t334.5 27.5q150 0 280 -25.5t226 -81.5t151 -144.5t55 -215.5v-932h-124zM1475 745q-327 -18 -558.5 -51t-378.5 -81t-215.5 -112t-68.5 -145q0 -66 33.5 -117t96.5 -85.5t153 -52t202 -17.5
q66 0 136.5 7.5t140.5 21t138 32t128 40.5t109.5 47t83.5 51v462zM626 1531v113h549v-113h-549z" />
    <glyph glyph-name="Abreve" unicode="&#x102;" horiz-adv-x="1665" 
d="M1489 0l-189 362h-933l-189 -362h-137l719 1374h147l719 -1374h-137zM834 1253l-406 -776h811zM1180 1751q-9 -37 -31 -79t-62 -77t-101.5 -58.5t-151.5 -23.5t-152 23.5t-102 58.5t-61.5 77t-30.5 79h116q6 -18 20.5 -41.5t41 -44.5t67.5 -35.5t101 -14.5q59 0 100 14.5
t68 35.5t42 44.5t21 41.5h115v0z" />
    <glyph glyph-name="abreve" unicode="&#x103;" horiz-adv-x="1819" 
d="M1475 0v152q-72 -39 -163.5 -72t-193 -57t-208.5 -37t-210 -13q-134 0 -240.5 24t-180.5 71.5t-114 118t-40 163.5q0 92 46.5 162.5t132.5 123t207.5 89t271.5 62t324.5 42t367.5 27.5v105q0 64 -24 113t-67 85.5t-101 61t-125.5 39.5t-142 21.5t-149.5 6.5
q-101 0 -184 -10t-155 -27.5t-138 -40.5t-133 -49v146q139 37 296.5 64.5t334.5 27.5q150 0 280 -25.5t226 -81.5t151 -144.5t55 -215.5v-932h-124zM1475 745q-327 -18 -558.5 -51t-378.5 -81t-215.5 -112t-68.5 -145q0 -66 33.5 -117t96.5 -85.5t153 -52t202 -17.5
q66 0 136.5 7.5t140.5 21t138 32t128 40.5t109.5 47t83.5 51v462zM1247 1751q-9 -37 -31 -79t-62 -77t-101.5 -58.5t-151.5 -23.5t-152 23.5t-102 58.5t-61.5 77t-30.5 79h116q6 -18 20.5 -41.5t41 -44.5t67.5 -35.5t101 -14.5q59 0 100 14.5t68 35.5t42 44.5t21 41.5h115v0
z" />
    <glyph glyph-name="Aogonek" unicode="&#x104;" horiz-adv-x="1665" 
d="M1626 0q-43 -15 -78 -36t-60 -45t-38.5 -50t-13.5 -51q0 -42 37 -61t106 -19q50 0 94 7.5t86 18.5v-102l-85.5 -12t-110.5 -6q-56 0 -100.5 8.5t-76 27t-48.5 47t-17 68.5q0 60 40.5 111.5t125.5 97.5l-187 358h-933l-189 -362h-137l719 1374h147zM834 1253l-406 -776
h811z" />
    <glyph glyph-name="aogonek" unicode="&#x105;" horiz-adv-x="1819" 
d="M1599 0q-81 -34 -129.5 -82.5t-48.5 -99.5q0 -42 37.5 -61t106.5 -19q49 0 93.5 7.5t86.5 18.5v-102l-86 -12t-111 -6q-55 0 -99.5 8.5t-76 27t-48.5 47t-17 68.5q0 60 40.5 111.5t127.5 99.5v146q-72 -39 -163.5 -72t-193 -57t-208.5 -37t-210 -13q-134 0 -240.5 24
t-180.5 71.5t-114 118t-40 163.5q0 92 46.5 162.5t132.5 123t207.5 89t271.5 62t324.5 42t367.5 27.5v105q0 64 -24 113t-67 85.5t-101 61t-125.5 39.5t-142 21.5t-149.5 6.5q-101 0 -184 -10t-155 -27.5t-138 -40.5t-133 -49v146q139 37 296.5 64.5t334.5 27.5
q150 0 280 -25.5t226 -81.5t151 -144.5t55 -215.5v-932zM1475 745q-327 -18 -558.5 -51t-378.5 -81t-215.5 -112t-68.5 -145q0 -66 33.5 -117t96.5 -85.5t153 -52t202 -17.5q66 0 136.5 7.5t140.5 21t138 32t128 40.5t109.5 47t83.5 51v462z" />
    <glyph glyph-name="Ccedilla" unicode="&#xc7;" horiz-adv-x="1780" 
d="M1640 109q-72 -30 -142.5 -55t-146.5 -43t-160 -28t-183 -10q-122 0 -234.5 20t-209.5 60t-176 99.5t-135.5 138.5t-87 178t-30.5 217t30.5 217t87 178t135.5 138.5t176 99.5t209 60t235 20q99 0 183 -10t160 -28t146.5 -42.5t142.5 -54.5v-150q-57 36 -122 68t-140.5 56
t-161.5 38t-184 14q-198 0 -343 -43t-239.5 -121.5t-140 -190t-45.5 -249.5t45.5 -249t140 -189.5t239.5 -121t343 -42.5q98 0 185.5 14t164 38t141 55.5t117.5 66.5v-149v0zM969 -98q44 0 82.5 -7t67 -23.5t45 -44t16.5 -69.5q0 -45 -18.5 -75.5t-51.5 -49t-79 -26.5
t-101 -8q-57 0 -111 8.5t-98 17.5v101q45 -16 97.5 -26.5t103.5 -10.5q42 0 71 5t46.5 14t25 22t7.5 28q0 19 -10 32t-27 20.5t-38.5 10.5t-45.5 3q-26 0 -53 -1.5t-50 -4.5l76 202h90z" />
    <glyph glyph-name="ccedilla" unicode="&#xe7;" horiz-adv-x="1780" 
d="M1640 109q-72 -30 -142.5 -55t-146.5 -43t-160 -28t-183 -10q-122 0 -234.5 20t-209.5 60t-176 99.5t-135.5 138.5t-87 178t-30.5 217t30.5 217t87 178t135.5 138.5t176 99.5t209 60t235 20q99 0 183 -10t160 -28t146.5 -42.5t142.5 -54.5v-150q-57 36 -122 68t-140.5 56
t-161.5 38t-184 14q-198 0 -343 -43t-239.5 -121.5t-140 -190t-45.5 -249.5t45.5 -249t140 -189.5t239.5 -121t343 -42.5q98 0 185.5 14t164 38t141 55.5t117.5 66.5v-149v0zM969 -98q44 0 82.5 -7t67 -23.5t45 -44t16.5 -69.5q0 -45 -18.5 -75.5t-51.5 -49t-79 -26.5
t-101 -8q-57 0 -111 8.5t-98 17.5v101q45 -16 97.5 -26.5t103.5 -10.5q42 0 71 5t46.5 14t25 22t7.5 28q0 19 -10 32t-27 20.5t-38.5 10.5t-45.5 3q-26 0 -53 -1.5t-50 -4.5l76 202h90z" />
    <glyph glyph-name="Cacute" unicode="&#x106;" horiz-adv-x="1780" 
d="M1640 109q-72 -30 -142.5 -55t-146.5 -43t-160 -28t-183 -10q-122 0 -234.5 20t-209.5 60t-176 99.5t-135.5 138.5t-87 178t-30.5 217t30.5 217t87 178t135.5 138.5t176 99.5t209 60t235 20q99 0 183 -10t160 -28t146.5 -42.5t142.5 -54.5v-150q-57 36 -122 68t-140.5 56
t-161.5 38t-184 14q-198 0 -343 -43t-239.5 -121.5t-140 -190t-45.5 -249.5t45.5 -249t140 -189.5t239.5 -121t343 -42.5q98 0 185.5 14t164 38t141 55.5t117.5 66.5v-149v0zM1352 1687l-440 -186l-39 78l428 213z" />
    <glyph glyph-name="cacute" unicode="&#x107;" horiz-adv-x="1780" 
d="M1640 109q-72 -30 -142.5 -55t-146.5 -43t-160 -28t-183 -10q-122 0 -234.5 20t-209.5 60t-176 99.5t-135.5 138.5t-87 178t-30.5 217t30.5 217t87 178t135.5 138.5t176 99.5t209 60t235 20q99 0 183 -10t160 -28t146.5 -42.5t142.5 -54.5v-150q-57 36 -122 68t-140.5 56
t-161.5 38t-184 14q-198 0 -343 -43t-239.5 -121.5t-140 -190t-45.5 -249.5t45.5 -249t140 -189.5t239.5 -121t343 -42.5q98 0 185.5 14t164 38t141 55.5t117.5 66.5v-149v0zM1354 1687l-440 -186l-39 78l428 213z" />
    <glyph glyph-name="Ccircumflex" unicode="&#x108;" horiz-adv-x="1780" 
d="M1640 109q-72 -30 -142.5 -55t-146.5 -43t-160 -28t-183 -10q-122 0 -234.5 20t-209.5 60t-176 99.5t-135.5 138.5t-87 178t-30.5 217t30.5 217t87 178t135.5 138.5t176 99.5t209 60t235 20q99 0 183 -10t160 -28t146.5 -42.5t142.5 -54.5v-150q-57 36 -122 68t-140.5 56
t-161.5 38t-184 14q-198 0 -343 -43t-239.5 -121.5t-140 -190t-45.5 -249.5t45.5 -249t140 -189.5t239.5 -121t343 -42.5q98 0 185.5 14t164 38t141 55.5t117.5 66.5v-149v0zM1346 1501l-348 159l-348 -159l-39 71l387 220l387 -220z" />
    <glyph glyph-name="ccircumflex" unicode="&#x109;" horiz-adv-x="1780" 
d="M1640 109q-72 -30 -142.5 -55t-146.5 -43t-160 -28t-183 -10q-122 0 -234.5 20t-209.5 60t-176 99.5t-135.5 138.5t-87 178t-30.5 217t30.5 217t87 178t135.5 138.5t176 99.5t209 60t235 20q99 0 183 -10t160 -28t146.5 -42.5t142.5 -54.5v-150q-57 36 -122 68t-140.5 56
t-161.5 38t-184 14q-198 0 -343 -43t-239.5 -121.5t-140 -190t-45.5 -249.5t45.5 -249t140 -189.5t239.5 -121t343 -42.5q98 0 185.5 14t164 38t141 55.5t117.5 66.5v-149v0zM1348 1501l-348 159l-348 -159l-39 71l387 220l387 -220z" />
    <glyph glyph-name="Cdotaccent" unicode="&#x10a;" horiz-adv-x="1780" 
d="M1640 109q-72 -30 -142.5 -55t-146.5 -43t-160 -28t-183 -10q-122 0 -234.5 20t-209.5 60t-176 99.5t-135.5 138.5t-87 178t-30.5 217t30.5 217t87 178t135.5 138.5t176 99.5t209 60t235 20q99 0 183 -10t160 -28t146.5 -42.5t142.5 -54.5v-150q-57 36 -122 68t-140.5 56
t-161.5 38t-184 14q-198 0 -343 -43t-239.5 -121.5t-140 -190t-45.5 -249.5t45.5 -249t140 -189.5t239.5 -121t343 -42.5q98 0 185.5 14t164 38t141 55.5t117.5 66.5v-149v0zM920 1521v154h155v-154h-155z" />
    <glyph glyph-name="cdotaccent" unicode="&#x10b;" horiz-adv-x="1780" 
d="M1640 109q-72 -30 -142.5 -55t-146.5 -43t-160 -28t-183 -10q-122 0 -234.5 20t-209.5 60t-176 99.5t-135.5 138.5t-87 178t-30.5 217t30.5 217t87 178t135.5 138.5t176 99.5t209 60t235 20q99 0 183 -10t160 -28t146.5 -42.5t142.5 -54.5v-150q-57 36 -122 68t-140.5 56
t-161.5 38t-184 14q-198 0 -343 -43t-239.5 -121.5t-140 -190t-45.5 -249.5t45.5 -249t140 -189.5t239.5 -121t343 -42.5q98 0 185.5 14t164 38t141 55.5t117.5 66.5v-149v0zM922 1521v154h155v-154h-155z" />
    <glyph glyph-name="Ccaron" unicode="&#x10c;" horiz-adv-x="1780" 
d="M1640 109q-72 -30 -142.5 -55t-146.5 -43t-160 -28t-183 -10q-122 0 -234.5 20t-209.5 60t-176 99.5t-135.5 138.5t-87 178t-30.5 217t30.5 217t87 178t135.5 138.5t176 99.5t209 60t235 20q99 0 183 -10t160 -28t146.5 -42.5t142.5 -54.5v-150q-57 36 -122 68t-140.5 56
t-161.5 38t-184 14q-198 0 -343 -43t-239.5 -121.5t-140 -190t-45.5 -249.5t45.5 -249t140 -189.5t239.5 -121t343 -42.5q98 0 185.5 14t164 38t141 55.5t117.5 66.5v-149v0zM1385 1720l-387 -219l-387 219l39 72l348 -160l348 160z" />
    <glyph glyph-name="ccaron" unicode="&#x10d;" horiz-adv-x="1780" 
d="M1640 109q-72 -30 -142.5 -55t-146.5 -43t-160 -28t-183 -10q-122 0 -234.5 20t-209.5 60t-176 99.5t-135.5 138.5t-87 178t-30.5 217t30.5 217t87 178t135.5 138.5t176 99.5t209 60t235 20q99 0 183 -10t160 -28t146.5 -42.5t142.5 -54.5v-150q-57 36 -122 68t-140.5 56
t-161.5 38t-184 14q-198 0 -343 -43t-239.5 -121.5t-140 -190t-45.5 -249.5t45.5 -249t140 -189.5t239.5 -121t343 -42.5q98 0 185.5 14t164 38t141 55.5t117.5 66.5v-149v0zM1387 1720l-387 -219l-387 219l39 72l348 -160l348 160z" />
    <glyph glyph-name="Dcaron" unicode="&#x10e;" 
d="M1731 688q0 -132 -27.5 -234.5t-77.5 -178.5t-121.5 -129t-159 -85t-190 -46.5t-215.5 -14.5h-709v1374h707q169 0 314 -33t251.5 -112.5t167 -211.5t60.5 -329zM1602 688q0 112 -22 198t-63 149.5t-100 106.5t-133 69.5t-161 37.5t-185 11h-582v-1145h582
q147 0 269 26.5t209.5 92t136.5 176t49 278.5zM1172 1720l-387 -219l-387 219l39 72l348 -160l348 160z" />
    <glyph glyph-name="dcaron" unicode="&#x10f;" 
d="M1731 688q0 -132 -27.5 -234.5t-77.5 -178.5t-121.5 -129t-159 -85t-190 -46.5t-215.5 -14.5h-709v1374h707q169 0 314 -33t251.5 -112.5t167 -211.5t60.5 -329zM1602 688q0 112 -22 198t-63 149.5t-100 106.5t-133 69.5t-161 37.5t-185 11h-582v-1145h582
q147 0 269 26.5t209.5 92t136.5 176t49 278.5zM1174 1720l-387 -219l-387 219l39 72l348 -160l348 160z" />
    <glyph glyph-name="Eth" unicode="&#xd0;" 
d="M1731 688q0 -158 -37 -270.5t-102.5 -189t-156 -122t-198 -69t-228 -30.5t-245.5 -7h-533v651h-200v103h200v620h531q125 0 246 -7t228.5 -30.5t198 -68.5t156.5 -121.5t103 -188.5t37 -270zM1602 688q0 163 -50 273t-151 176.5t-253 94.5t-355 28h-437v-506h562v-103
h-562v-536h437q108 0 210 5.5t192 24.5t164.5 56t128.5 101t84 158t30 228z" />
    <glyph glyph-name="eth" unicode="&#xf0;" 
d="M1731 688q0 -158 -37 -270.5t-102.5 -189t-156 -122t-198 -69t-228 -30.5t-245.5 -7h-533v651h-200v103h200v620h531q125 0 246 -7t228.5 -30.5t198 -68.5t156.5 -121.5t103 -188.5t37 -270zM1602 688q0 163 -50 273t-151 176.5t-253 94.5t-355 28h-437v-506h562v-103
h-562v-536h437q108 0 210 5.5t192 24.5t164.5 56t128.5 101t84 158t30 228z" />
    <glyph glyph-name="Dcroat" unicode="&#x110;" 
d="M1731 688q0 -158 -37 -270.5t-102.5 -189t-156 -122t-198 -69t-228 -30.5t-245.5 -7h-533v651h-200v103h200v620h531q125 0 246 -7t228.5 -30.5t198 -68.5t156.5 -121.5t103 -188.5t37 -270zM1602 688q0 163 -50 273t-151 176.5t-253 94.5t-355 28h-437v-506h562v-103
h-562v-536h437q108 0 210 5.5t192 24.5t164.5 56t128.5 101t84 158t30 228z" />
    <glyph glyph-name="dcroat" unicode="&#x111;" 
d="M1731 688q0 -158 -37 -270.5t-102.5 -189t-156 -122t-198 -69t-228 -30.5t-245.5 -7h-533v651h-200v103h200v620h531q125 0 246 -7t228.5 -30.5t198 -68.5t156.5 -121.5t103 -188.5t37 -270zM1602 688q0 163 -50 273t-151 176.5t-253 94.5t-355 28h-437v-506h562v-103
h-562v-536h437q108 0 210 5.5t192 24.5t164.5 56t128.5 101t84 158t30 228z" />
    <glyph glyph-name="Egrave" unicode="&#xc8;" horiz-adv-x="1546" 
d="M231 0v1374h1145v-117h-1009v-473h958v-116h-958v-551h1024v-117h-1160zM490 1792l430 -213l-41 -78l-441 186z" />
    <glyph glyph-name="egrave" unicode="&#xe8;" 
d="M1616 72q-84 -26 -156 -44.5t-142 -30t-142.5 -17t-159.5 -5.5q-202 0 -365 49t-277.5 140.5t-176.5 221.5t-62 292q0 157 59.5 288t166.5 225t256 146t329 52q187 0 333 -50t246 -143t152 -225.5t52 -298.5v-31h-1465q11 -128 64 -231t150.5 -175t240 -110.5
t332.5 -38.5q81 0 164 11t159 29.5t139 42t103 48.5v-145zM1606 750q-7 105 -47 200.5t-119.5 168.5t-202 116t-293.5 43q-161 0 -282 -43t-205 -115.5t-132 -168t-61 -201.5h1342zM633 1792l430 -213l-41 -78l-441 186z" />
    <glyph glyph-name="Eacute" unicode="&#xc9;" horiz-adv-x="1546" 
d="M231 0v1374h1145v-117h-1009v-473h958v-116h-958v-551h1024v-117h-1160zM1147 1687l-440 -186l-39 78l428 213z" />
    <glyph glyph-name="eacute" unicode="&#xe9;" 
d="M1616 72q-84 -26 -156 -44.5t-142 -30t-142.5 -17t-159.5 -5.5q-202 0 -365 49t-277.5 140.5t-176.5 221.5t-62 292q0 157 59.5 288t166.5 225t256 146t329 52q187 0 333 -50t246 -143t152 -225.5t52 -298.5v-31h-1465q11 -128 64 -231t150.5 -175t240 -110.5
t332.5 -38.5q81 0 164 11t159 29.5t139 42t103 48.5v-145zM1606 750q-7 105 -47 200.5t-119.5 168.5t-202 116t-293.5 43q-161 0 -282 -43t-205 -115.5t-132 -168t-61 -201.5h1342zM1290 1687l-440 -186l-39 78l428 213z" />
    <glyph glyph-name="Ecircumflex" unicode="&#xca;" horiz-adv-x="1546" 
d="M231 0v1374h1145v-117h-1009v-473h958v-116h-958v-551h1024v-117h-1160zM1141 1501l-348 159l-348 -159l-39 71l387 220l387 -220z" />
    <glyph glyph-name="ecircumflex" unicode="&#xea;" 
d="M1616 72q-84 -26 -156 -44.5t-142 -30t-142.5 -17t-159.5 -5.5q-202 0 -365 49t-277.5 140.5t-176.5 221.5t-62 292q0 157 59.5 288t166.5 225t256 146t329 52q187 0 333 -50t246 -143t152 -225.5t52 -298.5v-31h-1465q11 -128 64 -231t150.5 -175t240 -110.5
t332.5 -38.5q81 0 164 11t159 29.5t139 42t103 48.5v-145zM1606 750q-7 105 -47 200.5t-119.5 168.5t-202 116t-293.5 43q-161 0 -282 -43t-205 -115.5t-132 -168t-61 -201.5h1342zM1284 1501l-348 159l-348 -159l-39 71l387 220l387 -220z" />
    <glyph glyph-name="Edieresis" unicode="&#xcb;" horiz-adv-x="1546" 
d="M231 0v1374h1145v-117h-1009v-473h958v-116h-958v-551h1024v-117h-1160zM518 1521v148h148v-148h-148zM920 1521v148h147v-148h-147z" />
    <glyph glyph-name="edieresis" unicode="&#xeb;" 
d="M1616 72q-84 -26 -156 -44.5t-142 -30t-142.5 -17t-159.5 -5.5q-202 0 -365 49t-277.5 140.5t-176.5 221.5t-62 292q0 157 59.5 288t166.5 225t256 146t329 52q187 0 333 -50t246 -143t152 -225.5t52 -298.5v-31h-1465q11 -128 64 -231t150.5 -175t240 -110.5
t332.5 -38.5q81 0 164 11t159 29.5t139 42t103 48.5v-145zM1606 750q-7 105 -47 200.5t-119.5 168.5t-202 116t-293.5 43q-161 0 -282 -43t-205 -115.5t-132 -168t-61 -201.5h1342zM661 1521v148h148v-148h-148zM1063 1521v148h147v-148h-147z" />
    <glyph glyph-name="Emacron" unicode="&#x112;" horiz-adv-x="1546" 
d="M231 0v1374h1145v-117h-1009v-473h958v-116h-958v-551h1024v-117h-1160zM518 1531v113h549v-113h-549z" />
    <glyph glyph-name="emacron" unicode="&#x113;" 
d="M1616 72q-84 -26 -156 -44.5t-142 -30t-142.5 -17t-159.5 -5.5q-202 0 -365 49t-277.5 140.5t-176.5 221.5t-62 292q0 157 59.5 288t166.5 225t256 146t329 52q187 0 333 -50t246 -143t152 -225.5t52 -298.5v-31h-1465q11 -128 64 -231t150.5 -175t240 -110.5
t332.5 -38.5q81 0 164 11t159 29.5t139 42t103 48.5v-145zM1606 750q-7 105 -47 200.5t-119.5 168.5t-202 116t-293.5 43q-161 0 -282 -43t-205 -115.5t-132 -168t-61 -201.5h1342zM661 1531v113h549v-113h-549z" />
    <glyph glyph-name="Ebreve" unicode="&#x114;" horiz-adv-x="1546" 
d="M231 0v1374h1145v-117h-1009v-473h958v-116h-958v-551h1024v-117h-1160zM1139 1751q-9 -37 -31 -79t-62 -77t-101.5 -58.5t-151.5 -23.5t-152 23.5t-102 58.5t-61.5 77t-30.5 79h116q6 -18 20.5 -41.5t41 -44.5t67.5 -35.5t101 -14.5q59 0 100 14.5t68 35.5t42 44.5
t21 41.5h115v0z" />
    <glyph glyph-name="ebreve" unicode="&#x115;" 
d="M1616 72q-84 -26 -156 -44.5t-142 -30t-142.5 -17t-159.5 -5.5q-202 0 -365 49t-277.5 140.5t-176.5 221.5t-62 292q0 157 59.5 288t166.5 225t256 146t329 52q187 0 333 -50t246 -143t152 -225.5t52 -298.5v-31h-1465q11 -128 64 -231t150.5 -175t240 -110.5
t332.5 -38.5q81 0 164 11t159 29.5t139 42t103 48.5v-145zM1606 750q-7 105 -47 200.5t-119.5 168.5t-202 116t-293.5 43q-161 0 -282 -43t-205 -115.5t-132 -168t-61 -201.5h1342zM1282 1751q-9 -37 -31 -79t-62 -77t-101.5 -58.5t-151.5 -23.5t-152 23.5t-102 58.5
t-61.5 77t-30.5 79h116q6 -18 20.5 -41.5t41 -44.5t67.5 -35.5t101 -14.5q59 0 100 14.5t68 35.5t42 44.5t21 41.5h115v0z" />
    <glyph glyph-name="Edotaccent" unicode="&#x116;" horiz-adv-x="1546" 
d="M231 0v1374h1145v-117h-1009v-473h958v-116h-958v-551h1024v-117h-1160zM715 1521v154h155v-154h-155z" />
    <glyph glyph-name="edotaccent" unicode="&#x117;" 
d="M1616 72q-84 -26 -156 -44.5t-142 -30t-142.5 -17t-159.5 -5.5q-202 0 -365 49t-277.5 140.5t-176.5 221.5t-62 292q0 157 59.5 288t166.5 225t256 146t329 52q187 0 333 -50t246 -143t152 -225.5t52 -298.5v-31h-1465q11 -128 64 -231t150.5 -175t240 -110.5
t332.5 -38.5q81 0 164 11t159 29.5t139 42t103 48.5v-145zM1606 750q-7 105 -47 200.5t-119.5 168.5t-202 116t-293.5 43q-161 0 -282 -43t-205 -115.5t-132 -168t-61 -201.5h1342zM858 1521v154h155v-154h-155z" />
    <glyph glyph-name="Eogonek" unicode="&#x118;" horiz-adv-x="1546" 
d="M1391 0q-79 0 -139.5 -19.5t-101.5 -48t-62 -59.5t-21 -55q0 -42 37 -61t106 -19q50 0 94.5 7.5t86.5 18.5v-102l-86.5 -12t-110.5 -6q-55 0 -100 8.5t-76.5 27t-48.5 47t-17 68.5q0 59 39 109t117 96h-877v1374h1145v-117h-1009v-473h958v-116h-958v-551h1024v-117v0z
" />
    <glyph glyph-name="eogonek" unicode="&#x119;" 
d="M1616 72q-55 -18 -98.5 -44.5t-74 -56t-47 -59.5t-16.5 -57q0 -42 37.5 -61t106.5 -19q49 0 93.5 7.5t86.5 18.5v-102l-86 -12t-111 -6q-55 0 -99.5 8.5t-76 27t-48.5 47t-17 68.5q0 50 27.5 93t82.5 83q-84 -17 -170 -25t-190 -8q-202 0 -365 49t-277.5 140.5
t-176.5 221.5t-62 292q0 157 59.5 288t166.5 225t256 146t329 52q187 0 333 -50t246 -143t152 -225.5t52 -298.5v-31h-1465q11 -128 64 -231t150.5 -175t240 -110.5t332.5 -38.5q81 0 164 11t159 29.5t139 42t103 48.5v-145zM1606 750q-7 105 -47 200.5t-119.5 168.5
t-202 116t-293.5 43q-161 0 -282 -43t-205 -115.5t-132 -168t-61 -201.5h1342z" />
    <glyph glyph-name="Ecaron" unicode="&#x11a;" horiz-adv-x="1546" 
d="M231 0v1374h1145v-117h-1009v-473h958v-116h-958v-551h1024v-117h-1160zM1180 1720l-387 -219l-387 219l39 72l348 -160l348 160z" />
    <glyph glyph-name="ecaron" unicode="&#x11b;" 
d="M1616 72q-84 -26 -156 -44.5t-142 -30t-142.5 -17t-159.5 -5.5q-202 0 -365 49t-277.5 140.5t-176.5 221.5t-62 292q0 157 59.5 288t166.5 225t256 146t329 52q187 0 333 -50t246 -143t152 -225.5t52 -298.5v-31h-1465q11 -128 64 -231t150.5 -175t240 -110.5
t332.5 -38.5q81 0 164 11t159 29.5t139 42t103 48.5v-145zM1606 750q-7 105 -47 200.5t-119.5 168.5t-202 116t-293.5 43q-161 0 -282 -43t-205 -115.5t-132 -168t-61 -201.5h1342zM1323 1720l-387 -219l-387 219l39 72l348 -160l348 160z" />
    <glyph glyph-name="Gcircumflex" unicode="&#x11c;" 
d="M1040 1399q95 0 177 -9.5t157 -27t146 -42t143 -54.5v-152q-57 36 -121.5 68t-139 56t-160 38t-183.5 14q-200 0 -349 -42t-248 -120t-148.5 -190t-49.5 -252q0 -131 48.5 -241.5t147 -190.5t246.5 -125t347 -45q78 0 154.5 6t144.5 15.5t124 21t95 23.5v417h-559v117
h684v-604q-74 -26 -149.5 -46t-156 -33.5t-167 -20.5t-181.5 -7q-194 0 -360 43.5t-287.5 132t-190.5 222.5t-69 315q0 121 32 220.5t90.5 179t141 138.5t183 97.5t216.5 58t242 19.5zM1362 1501l-348 159l-348 -159l-39 71l387 220l387 -220z" />
    <glyph glyph-name="gcircumflex" unicode="&#x11d;" 
d="M1040 1399q95 0 177 -9.5t157 -27t146 -42t143 -54.5v-152q-57 36 -121.5 68t-139 56t-160 38t-183.5 14q-200 0 -349 -42t-248 -120t-148.5 -190t-49.5 -252q0 -131 48.5 -241.5t147 -190.5t246.5 -125t347 -45q78 0 154.5 6t144.5 15.5t124 21t95 23.5v417h-559v117
h684v-604q-74 -26 -149.5 -46t-156 -33.5t-167 -20.5t-181.5 -7q-194 0 -360 43.5t-287.5 132t-190.5 222.5t-69 315q0 121 32 220.5t90.5 179t141 138.5t183 97.5t216.5 58t242 19.5zM1362 1501l-348 159l-348 -159l-39 71l387 220l387 -220z" />
    <glyph glyph-name="Gbreve" unicode="&#x11e;" 
d="M1040 1399q95 0 177 -9.5t157 -27t146 -42t143 -54.5v-152q-57 36 -121.5 68t-139 56t-160 38t-183.5 14q-200 0 -349 -42t-248 -120t-148.5 -190t-49.5 -252q0 -131 48.5 -241.5t147 -190.5t246.5 -125t347 -45q78 0 154.5 6t144.5 15.5t124 21t95 23.5v417h-559v117
h684v-604q-74 -26 -149.5 -46t-156 -33.5t-167 -20.5t-181.5 -7q-194 0 -360 43.5t-287.5 132t-190.5 222.5t-69 315q0 121 32 220.5t90.5 179t141 138.5t183 97.5t216.5 58t242 19.5zM1360 1751q-9 -37 -31 -79t-62 -77t-101.5 -58.5t-151.5 -23.5t-152 23.5t-102 58.5
t-61.5 77t-30.5 79h116q6 -18 20.5 -41.5t41 -44.5t67.5 -35.5t101 -14.5q59 0 100 14.5t68 35.5t42 44.5t21 41.5h115v0z" />
    <glyph glyph-name="gbreve" unicode="&#x11f;" 
d="M1040 1399q95 0 177 -9.5t157 -27t146 -42t143 -54.5v-152q-57 36 -121.5 68t-139 56t-160 38t-183.5 14q-200 0 -349 -42t-248 -120t-148.5 -190t-49.5 -252q0 -131 48.5 -241.5t147 -190.5t246.5 -125t347 -45q78 0 154.5 6t144.5 15.5t124 21t95 23.5v417h-559v117
h684v-604q-74 -26 -149.5 -46t-156 -33.5t-167 -20.5t-181.5 -7q-194 0 -360 43.5t-287.5 132t-190.5 222.5t-69 315q0 121 32 220.5t90.5 179t141 138.5t183 97.5t216.5 58t242 19.5zM1360 1751q-9 -37 -31 -79t-62 -77t-101.5 -58.5t-151.5 -23.5t-152 23.5t-102 58.5
t-61.5 77t-30.5 79h116q6 -18 20.5 -41.5t41 -44.5t67.5 -35.5t101 -14.5q59 0 100 14.5t68 35.5t42 44.5t21 41.5h115v0z" />
    <glyph glyph-name="Gdotaccent" unicode="&#x120;" 
d="M1040 1399q95 0 177 -9.5t157 -27t146 -42t143 -54.5v-152q-57 36 -121.5 68t-139 56t-160 38t-183.5 14q-200 0 -349 -42t-248 -120t-148.5 -190t-49.5 -252q0 -131 48.5 -241.5t147 -190.5t246.5 -125t347 -45q78 0 154.5 6t144.5 15.5t124 21t95 23.5v417h-559v117
h684v-604q-74 -26 -149.5 -46t-156 -33.5t-167 -20.5t-181.5 -7q-194 0 -360 43.5t-287.5 132t-190.5 222.5t-69 315q0 121 32 220.5t90.5 179t141 138.5t183 97.5t216.5 58t242 19.5zM936 1521v154h155v-154h-155z" />
    <glyph glyph-name="gdotaccent" unicode="&#x121;" 
d="M1040 1399q95 0 177 -9.5t157 -27t146 -42t143 -54.5v-152q-57 36 -121.5 68t-139 56t-160 38t-183.5 14q-200 0 -349 -42t-248 -120t-148.5 -190t-49.5 -252q0 -131 48.5 -241.5t147 -190.5t246.5 -125t347 -45q78 0 154.5 6t144.5 15.5t124 21t95 23.5v417h-559v117
h684v-604q-74 -26 -149.5 -46t-156 -33.5t-167 -20.5t-181.5 -7q-194 0 -360 43.5t-287.5 132t-190.5 222.5t-69 315q0 121 32 220.5t90.5 179t141 138.5t183 97.5t216.5 58t242 19.5zM936 1521v154h155v-154h-155z" />
    <glyph glyph-name="Gcommaaccent" unicode="&#x122;" 
d="M1040 1399q95 0 177 -9.5t157 -27t146 -42t143 -54.5v-152q-57 36 -121.5 68t-139 56t-160 38t-183.5 14q-200 0 -349 -42t-248 -120t-148.5 -190t-49.5 -252q0 -131 48.5 -241.5t147 -190.5t246.5 -125t347 -45q78 0 154.5 6t144.5 15.5t124 21t95 23.5v417h-559v117
h684v-604q-74 -26 -149.5 -46t-156 -33.5t-167 -20.5t-181.5 -7q-194 0 -360 43.5t-287.5 132t-190.5 222.5t-69 315q0 121 32 220.5t90.5 179t141 138.5t183 97.5t216.5 58t242 19.5zM1041 -416h-101l39 273h144z" />
    <glyph glyph-name="gcommaaccent" unicode="&#x123;" 
d="M1040 1399q95 0 177 -9.5t157 -27t146 -42t143 -54.5v-152q-57 36 -121.5 68t-139 56t-160 38t-183.5 14q-200 0 -349 -42t-248 -120t-148.5 -190t-49.5 -252q0 -131 48.5 -241.5t147 -190.5t246.5 -125t347 -45q78 0 154.5 6t144.5 15.5t124 21t95 23.5v417h-559v117
h684v-604q-74 -26 -149.5 -46t-156 -33.5t-167 -20.5t-181.5 -7q-194 0 -360 43.5t-287.5 132t-190.5 222.5t-69 315q0 121 32 220.5t90.5 179t141 138.5t183 97.5t216.5 58t242 19.5zM1041 -416h-101l39 273h144z" />
    <glyph glyph-name="Hcircumflex" unicode="&#x124;" horiz-adv-x="1944" 
d="M1587 0v666h-1231v-666h-125v1374h125v-592h1231v592h125v-1374h-125zM1321 1501l-348 159l-348 -159l-39 71l387 220l387 -220z" />
    <glyph glyph-name="hcircumflex" unicode="&#x125;" horiz-adv-x="1944" 
d="M1587 0v666h-1231v-666h-125v1374h125v-592h1231v592h125v-1374h-125zM1321 1501l-348 159l-348 -159l-39 71l387 220l387 -220z" />
    <glyph glyph-name="Hbar" unicode="&#x126;" horiz-adv-x="1944" 
d="M1587 0v666h-1231v-666h-125v981h-176v113h176v280h125v-280h1231v280h125v-280h176v-113h-176v-981h-125zM1587 782v199h-1231v-199h1231z" />
    <glyph glyph-name="hbar" unicode="&#x127;" horiz-adv-x="1944" 
d="M1587 0v666h-1231v-666h-125v981h-176v113h176v280h125v-280h1231v280h125v-280h176v-113h-176v-981h-125zM1587 782v199h-1231v-199h1231z" />
    <glyph glyph-name="Igrave" unicode="&#xcc;" horiz-adv-x="588" 
d="M231 0v1374h125v-1374h-125zM-9 1805l430 -213l-41 -78l-441 186z" />
    <glyph glyph-name="igrave" unicode="&#xec;" horiz-adv-x="588" 
d="M231 0v1374h125v-1374h-125zM-7 1792l430 -213l-41 -78l-441 186z" />
    <glyph glyph-name="Iacute" unicode="&#xcd;" horiz-adv-x="588" 
d="M231 0v1374h125v-1374h-125zM648 1700l-440 -186l-39 78l428 213z" />
    <glyph glyph-name="iacute" unicode="&#xed;" horiz-adv-x="588" 
d="M231 0v1374h125v-1374h-125zM650 1687l-440 -186l-39 78l428 213z" />
    <glyph glyph-name="Icircumflex" unicode="&#xce;" horiz-adv-x="588" 
d="M231 0v1374h125v-1374h-125zM642 1514l-348 159l-348 -159l-39 71l387 220l387 -220z" />
    <glyph glyph-name="icircumflex" unicode="&#xee;" horiz-adv-x="588" 
d="M231 0v1374h125v-1374h-125zM644 1501l-348 159l-348 -159l-39 71l387 220l387 -220z" />
    <glyph glyph-name="Idieresis" unicode="&#xcf;" horiz-adv-x="588" 
d="M231 0v1374h125v-1374h-125zM19 1534v148h148v-148h-148zM421 1534v148h147v-148h-147z" />
    <glyph glyph-name="idieresis" unicode="&#xef;" horiz-adv-x="588" 
d="M231 0v1374h125v-1374h-125zM21 1521v148h148v-148h-148zM423 1521v148h147v-148h-147z" />
    <glyph glyph-name="Itilde" unicode="&#x128;" horiz-adv-x="588" 
d="M231 0v1374h125v-1374h-125zM648 1743q0 -26 -7.5 -64t-28.5 -73t-57.5 -59.5t-94.5 -24.5q-47 0 -92.5 19t-88 41.5l-81 41.5t-70.5 19q-30 0 -47.5 -15t-26.5 -35.5t-12 -40.5t-4 -30h-95q0 25 8 62.5t29 73t58 60.5t96 25q39 0 82 -19t86.5 -41.5t84.5 -41.5t77 -19
q30 0 47.5 15t26.5 35t12 40t4 31h94v0z" />
    <glyph glyph-name="itilde" unicode="&#x129;" horiz-adv-x="588" 
d="M231 0v1374h125v-1374h-125zM650 1730q0 -26 -7.5 -64t-28.5 -73t-57.5 -59.5t-94.5 -24.5q-47 0 -92.5 19t-88 41.5l-81 41.5t-70.5 19q-30 0 -47.5 -15t-26.5 -35.5t-12 -40.5t-4 -30h-95q0 25 8 62.5t29 73t58 60.5t96 25q39 0 82 -19t86.5 -41.5t84.5 -41.5t77 -19
q30 0 47.5 15t26.5 35t12 40t4 31h94v0z" />
    <glyph glyph-name="Imacron" unicode="&#x12a;" horiz-adv-x="588" 
d="M231 0v1374h125v-1374h-125zM19 1544v113h549v-113h-549z" />
    <glyph glyph-name="imacron" unicode="&#x12b;" horiz-adv-x="588" 
d="M231 0v1374h125v-1374h-125zM21 1531v113h549v-113h-549z" />
    <glyph glyph-name="Ibreve" unicode="&#x12c;" horiz-adv-x="588" 
d="M231 0v1374h125v-1374h-125zM640 1764q-9 -37 -31 -79t-62 -77t-101.5 -58.5t-151.5 -23.5t-152 23.5t-102 58.5t-61.5 77t-30.5 79h116q6 -18 20.5 -41.5t41 -44.5t67.5 -35.5t101 -14.5q59 0 100 14.5t68 35.5t42 44.5t21 41.5h115v0z" />
    <glyph glyph-name="ibreve" unicode="&#x12d;" horiz-adv-x="588" 
d="M231 0v1374h125v-1374h-125zM642 1751q-9 -37 -31 -79t-62 -77t-101.5 -58.5t-151.5 -23.5t-152 23.5t-102 58.5t-61.5 77t-30.5 79h116q6 -18 20.5 -41.5t41 -44.5t67.5 -35.5t101 -14.5q59 0 100 14.5t68 35.5t42 44.5t21 41.5h115v0z" />
    <glyph glyph-name="Iogonek" unicode="&#x12e;" horiz-adv-x="588" 
d="M231 1374h125v-1374h-37q-17 -11 -35 -24q-33 -24 -60 -50.5t-44.5 -53.5t-17.5 -54q0 -42 37 -61t106 -19q50 0 94.5 7.5t86.5 18.5v-102l-86.5 -12t-110.5 -6q-55 0 -100 8.5t-76.5 27t-48.5 47t-17 68.5q0 65 48 120q45 51 136 99v1360z" />
    <glyph glyph-name="iogonek" unicode="&#x12f;" horiz-adv-x="588" 
d="M358 20l-2 -1v-19h-29q-17 -11 -35 -24q-33 -24 -60 -50.5t-44.5 -53.5t-17.5 -54q0 -42 37 -61t106 -19q50 0 94.5 7.5t86.5 18.5v-102l-86.5 -12t-110.5 -6q-55 0 -100 8.5t-76.5 27t-48.5 47t-17 68.5q0 65 48 120q43 49 128 95v1364h125v-1354h2z" />
    <glyph glyph-name="Idotaccent" unicode="&#x130;" horiz-adv-x="588" 
d="M231 0v1374h125v-1374h-125zM216 1534v154h155v-154h-155z" />
    <glyph glyph-name="dotlessi" unicode="&#x131;" horiz-adv-x="588" 
d="M231 0v1374h125v-1374h-125z" />
    <glyph glyph-name="IJ" unicode="&#x132;" horiz-adv-x="1798" 
d="M231 0v1374h125v-1374h-125zM1573 440q0 -114 -40 -199.5t-112 -142.5t-172 -85.5t-221 -28.5q-75 0 -138 6.5t-116.5 16.5t-99 21.5l-86.5 22.5v129q42 -16 87 -31t101 -27t125.5 -19t159.5 -7q81 0 151.5 22.5t123 66t82.5 106t30 143.5v940h125v-934z" />
    <glyph glyph-name="ij" unicode="&#x133;" horiz-adv-x="1798" 
d="M231 0v1374h125v-1374h-125zM1573 440q0 -114 -40 -199.5t-112 -142.5t-172 -85.5t-221 -28.5q-75 0 -138 6.5t-116.5 16.5t-99 21.5l-86.5 22.5v129q42 -16 87 -31t101 -27t125.5 -19t159.5 -7q81 0 151.5 22.5t123 66t82.5 106t30 143.5v940h125v-934z" />
    <glyph glyph-name="Jcircumflex" unicode="&#x134;" horiz-adv-x="1210" 
d="M985 440q0 -114 -40 -199.5t-112 -142.5t-172 -85.5t-221 -28.5q-75 0 -138 6.5t-116.5 16.5t-99 21.5l-86.5 22.5v129q42 -16 87 -31t101 -27t125.5 -19t159.5 -7q81 0 151.5 22.5t123 66t82.5 106t30 143.5v940h125v-934zM1272 1501l-348 159l-348 -159l-39 71l387 220
l387 -220z" />
    <glyph glyph-name="jcircumflex" unicode="&#x135;" horiz-adv-x="1210" 
d="M985 440q0 -114 -40 -199.5t-112 -142.5t-172 -85.5t-221 -28.5q-75 0 -138 6.5t-116.5 16.5t-99 21.5l-86.5 22.5v129q42 -16 87 -31t101 -27t125.5 -19t159.5 -7q81 0 151.5 22.5t123 66t82.5 106t30 143.5v940h125v-934zM1272 1501l-348 159l-348 -159l-39 71l387 220
l387 -220z" />
    <glyph glyph-name="dotlessj" unicode="&#x237;" horiz-adv-x="1210" 
d="M985 440q0 -114 -40 -199.5t-112 -142.5t-172 -85.5t-221 -28.5q-75 0 -138 6.5t-116.5 16.5t-99 21.5l-86.5 22.5v129q42 -16 87 -31t101 -27t125.5 -19t159.5 -7q81 0 151.5 22.5t123 66t82.5 106t30 143.5v940h125v-934z" />
    <glyph glyph-name="Kcommaaccent" unicode="&#x136;" horiz-adv-x="1651" 
d="M358 727l1022 647h174l-1007 -659l1069 -715h-213l-1045 700v-700h-127v1374h127v-647zM832 -416h-101l39 273h144z" />
    <glyph glyph-name="kcommaaccent" unicode="&#x137;" horiz-adv-x="1776" 
d="M1520 0q-10 112 -55 202.5t-115.5 160.5t-161.5 120.5t-193 83.5t-211 48.5t-215 15.5h-213v-631h-125v1374h125v-633h179q107 0 213 19.5t202.5 57t180 92t147.5 125t105 155.5t51 184h129q-10 -109 -48.5 -197.5t-94.5 -159.5t-125 -124.5t-140 -92t-139 -64
t-123 -38.5q69 -11 149.5 -33.5t161 -60t156.5 -92t136.5 -128.5t101.5 -169t51 -215h-129zM895 -416h-101l39 273h144z" />
    <glyph glyph-name="kgreenlandic" unicode="&#x138;" horiz-adv-x="1776" 
d="M1520 0q-10 112 -55 202.5t-115.5 160.5t-161.5 120.5t-193 83.5t-211 48.5t-215 15.5h-213v-631h-125v1374h125v-633h179q107 0 213 19.5t202.5 57t180 92t147.5 125t105 155.5t51 184h129q-10 -109 -48.5 -197.5t-94.5 -159.5t-125 -124.5t-140 -92t-139 -64
t-123 -38.5q69 -11 149.5 -33.5t161 -60t156.5 -92t136.5 -128.5t101.5 -169t51 -215h-129z" />
    <glyph glyph-name="Lacute" unicode="&#x139;" horiz-adv-x="1436" 
d="M231 0v1374h125v-1257h1004v-117h-1129zM650 1687l-440 -186l-39 78l428 213z" />
    <glyph glyph-name="lacute" unicode="&#x13a;" horiz-adv-x="1454" 
d="M356 475q0 -93 15 -160t63 -110t138.5 -63.5t240.5 -20.5h621v-121h-646q-165 0 -272.5 26.5t-171 82t-88.5 140.5t-25 202v923h125v-899zM650 1687l-440 -186l-39 78l428 213z" />
    <glyph glyph-name="Lcommaaccent" unicode="&#x13b;" horiz-adv-x="1436" 
d="M231 0v1374h125v-1257h1004v-117h-1129zM813 -416h-101l39 273h144z" />
    <glyph glyph-name="lcommaaccent" unicode="&#x13c;" horiz-adv-x="1454" 
d="M356 475q0 -93 15 -160t63 -110t138.5 -63.5t240.5 -20.5h621v-121h-646q-165 0 -272.5 26.5t-171 82t-88.5 140.5t-25 202v923h125v-899zM856 -416h-101l39 273h144z" />
    <glyph glyph-name="Lcaron" unicode="&#x13d;" horiz-adv-x="1436" 
d="M231 0v1374h125v-1257h1004v-117h-1129zM983 1014h-101l68 360h143z" />
    <glyph glyph-name="lcaron" unicode="&#x13e;" horiz-adv-x="1454" 
d="M356 475q0 -93 15 -160t63 -110t138.5 -63.5t240.5 -20.5h621v-121h-646q-165 0 -272.5 26.5t-171 82t-88.5 140.5t-25 202v923h125v-899zM985 1014h-101l68 360h143z" />
    <glyph glyph-name="Ldot" unicode="&#x13f;" horiz-adv-x="1436" 
d="M231 0v1374h125v-1257h1004v-117h-1129zM921 579v217h174v-217h-174z" />
    <glyph glyph-name="ldotaccent" unicode="&#x140;" horiz-adv-x="1454" 
d="M356 475q0 -93 15 -160t63 -110t138.5 -63.5t240.5 -20.5h621v-121h-646q-165 0 -272.5 26.5t-171 82t-88.5 140.5t-25 202v923h125v-899zM942 582v217h174v-217h-174z" />
    <glyph glyph-name="Lslash" unicode="&#x141;" horiz-adv-x="1436" 
d="M231 0v598l-188 -72l-37 99l225 86v663h125v-614l375 145l37 -98l-412 -160v-530h1004v-117h-1129z" />
    <glyph glyph-name="lslash" unicode="&#x142;" horiz-adv-x="1454" 
d="M231 711v663h125v-614l375 145l37 -98l-412 -160v-172q0 -93 15 -160t63 -110t138.5 -63.5t240.5 -20.5h621v-121h-646q-165 0 -272.5 26.5t-171 82t-88.5 140.5t-25 202v147l-188 -72l-37 99z" />
    <glyph glyph-name="Ntilde" unicode="&#xd1;" horiz-adv-x="1917" 
d="M1550 0l-1194 1210v-1210h-125v1374h138l1194 -1214v1214h123v-1374h-136zM1311 1730q0 -26 -7.5 -64t-28.5 -73t-57.5 -59.5t-94.5 -24.5q-47 0 -92.5 19t-88 41.5l-81 41.5t-70.5 19q-30 0 -47.5 -15t-26.5 -35.5t-12 -40.5t-4 -30h-95q0 25 8 62.5t29 73t58 60.5
t96 25q39 0 82 -19t86.5 -41.5t84.5 -41.5t77 -19q30 0 47.5 15t26.5 35t12 40t4 31h94v0z" />
    <glyph glyph-name="ntilde" unicode="&#xf1;" horiz-adv-x="1911" 
d="M1561 0v907q0 114 -30.5 187.5t-87 116.5t-137.5 60t-182 17q-117 0 -229.5 -28.5t-212.5 -72t-184 -96.5t-142 -102v-989h-125v1374h125v-241l154.5 92.5t182 89t208.5 66.5t234 26q139 0 242.5 -33.5t172 -95t102.5 -149t34 -195.5v-934h-125zM1290 1730
q0 -26 -7.5 -64t-28.5 -73t-57.5 -59.5t-94.5 -24.5q-47 0 -92.5 19t-88 41.5l-81 41.5t-70.5 19q-30 0 -47.5 -15t-26.5 -35.5t-12 -40.5t-4 -30h-95q0 25 8 62.5t29 73t58 60.5t96 25q39 0 82 -19t86.5 -41.5t84.5 -41.5t77 -19q30 0 47.5 15t26.5 35t12 40t4 31h94v0z
" />
    <glyph glyph-name="Nacute" unicode="&#x143;" horiz-adv-x="1917" 
d="M1550 0l-1194 1210v-1210h-125v1374h138l1194 -1214v1214h123v-1374h-136zM1311 1687l-440 -186l-39 78l428 213z" />
    <glyph glyph-name="nacute" unicode="&#x144;" horiz-adv-x="1911" 
d="M1561 0v907q0 114 -30.5 187.5t-87 116.5t-137.5 60t-182 17q-117 0 -229.5 -28.5t-212.5 -72t-184 -96.5t-142 -102v-989h-125v1374h125v-241l154.5 92.5t182 89t208.5 66.5t234 26q139 0 242.5 -33.5t172 -95t102.5 -149t34 -195.5v-934h-125zM1290 1687l-440 -186
l-39 78l428 213z" />
    <glyph glyph-name="Ncommaaccent" unicode="&#x145;" horiz-adv-x="1917" 
d="M1550 0l-1194 1210v-1210h-125v1374h138l1194 -1214v1214h123v-1374h-136zM967 -416h-101l39 273h144z" />
    <glyph glyph-name="ncommaaccent" unicode="&#x146;" horiz-adv-x="1911" 
d="M1561 0v907q0 114 -30.5 187.5t-87 116.5t-137.5 60t-182 17q-117 0 -229.5 -28.5t-212.5 -72t-184 -96.5t-142 -102v-989h-125v1374h125v-241l154.5 92.5t182 89t208.5 66.5t234 26q139 0 242.5 -33.5t172 -95t102.5 -149t34 -195.5v-934h-125zM963 -416h-101l39 273
h144z" />
    <glyph glyph-name="Ncaron" unicode="&#x147;" horiz-adv-x="1917" 
d="M1550 0l-1194 1210v-1210h-125v1374h138l1194 -1214v1214h123v-1374h-136zM1344 1720l-387 -219l-387 219l39 72l348 -160l348 160z" />
    <glyph glyph-name="ncaron" unicode="&#x148;" horiz-adv-x="1911" 
d="M1561 0v907q0 114 -30.5 187.5t-87 116.5t-137.5 60t-182 17q-117 0 -229.5 -28.5t-212.5 -72t-184 -96.5t-142 -102v-989h-125v1374h125v-241l154.5 92.5t182 89t208.5 66.5t234 26q139 0 242.5 -33.5t172 -95t102.5 -149t34 -195.5v-934h-125zM1323 1720l-387 -219
l-387 219l39 72l348 -160l348 160z" />
    <glyph glyph-name="napostrophe" unicode="&#x149;" horiz-adv-x="2101" 
d="M102 1014h-101l68 360h143zM1751 0v907q0 114 -30.5 187.5t-87 116.5t-137.5 60t-182 17q-117 0 -229.5 -28.5t-212.5 -72t-184 -96.5t-142 -102v-989h-125v1374h125v-241l154.5 92.5t182 89t208.5 66.5t234 26q139 0 242.5 -33.5t172 -95t102.5 -149t34 -195.5v-934
h-125z" />
    <glyph glyph-name="Eng" unicode="&#x14a;" horiz-adv-x="1917" 
d="M1686 440q0 -114 -33.5 -199.5t-98 -142.5t-158.5 -85.5t-214 -28.5q-75 0 -132 6.5t-102.5 16.5t-85 21.5l-80.5 22.5v129l81 -31t87 -27t111 -19t153 -7q134 0 219.5 59t114.5 171h-2l-1190 911v-1237h-125v1374h138l1192 -911v911h125v-934z" />
    <glyph glyph-name="eng" unicode="&#x14b;" horiz-adv-x="1911" 
d="M1561 907q0 114 -30.5 187.5t-87 116.5t-137.5 60t-182 17q-117 0 -229.5 -28.5t-212.5 -72t-184 -96.5t-142 -102v-989h-125v1374h125v-241l154.5 92.5t182 89t208.5 66.5t234 26q139 0 242.5 -33.5t172 -95t102.5 -149t34 -195.5v-492q0 -114 -33.5 -199.5t-96 -142.5
t-152 -85.5t-202.5 -28.5q-65 0 -120.5 6t-104 15t-91.5 20l-83 22v133l81.5 -31t88 -27t104.5 -19t131 -7q175 0 264 88t89 250v471z" />
    <glyph glyph-name="Ograve" unicode="&#xd2;" horiz-adv-x="2015" 
d="M1880 686q0 -185 -67 -319.5t-184 -222t-276 -129.5t-343 -42q-185 0 -345 42t-278 129.5t-185 222t-67 319.5q0 123 31 223.5t87 180t135.5 137.5t177 96.5t209.5 57t235 18.5q184 0 343 -42t276 -129.5t184 -222t67 -319.5zM1751 686q0 146 -47.5 258t-140.5 188.5
t-231.5 116t-321.5 39.5t-322.5 -40t-233.5 -116.5t-142 -189t-48 -256.5q0 -146 48 -258t142 -188.5t233.5 -116t322.5 -39.5t321.5 39.5t231.5 116t140.5 188.5t47.5 258zM707 1792l430 -213l-41 -78l-441 186z" />
    <glyph glyph-name="ograve" unicode="&#xf2;" horiz-adv-x="2015" 
d="M1880 686q0 -185 -67 -319.5t-184 -222t-276 -129.5t-343 -42q-185 0 -345 42t-278 129.5t-185 222t-67 319.5q0 123 31 223.5t87 180t135.5 137.5t177 96.5t209.5 57t235 18.5q184 0 343 -42t276 -129.5t184 -222t67 -319.5zM1751 686q0 146 -47.5 258t-140.5 188.5
t-231.5 116t-321.5 39.5t-322.5 -40t-233.5 -116.5t-142 -189t-48 -256.5q0 -146 48 -258t142 -188.5t233.5 -116t322.5 -39.5t321.5 39.5t231.5 116t140.5 188.5t47.5 258zM707 1792l430 -213l-41 -78l-441 186z" />
    <glyph glyph-name="Oacute" unicode="&#xd3;" horiz-adv-x="2015" 
d="M1880 686q0 -185 -67 -319.5t-184 -222t-276 -129.5t-343 -42q-185 0 -345 42t-278 129.5t-185 222t-67 319.5q0 123 31 223.5t87 180t135.5 137.5t177 96.5t209.5 57t235 18.5q184 0 343 -42t276 -129.5t184 -222t67 -319.5zM1751 686q0 146 -47.5 258t-140.5 188.5
t-231.5 116t-321.5 39.5t-322.5 -40t-233.5 -116.5t-142 -189t-48 -256.5q0 -146 48 -258t142 -188.5t233.5 -116t322.5 -39.5t321.5 39.5t231.5 116t140.5 188.5t47.5 258zM1364 1687l-440 -186l-39 78l428 213z" />
    <glyph glyph-name="oacute" unicode="&#xf3;" horiz-adv-x="2015" 
d="M1880 686q0 -185 -67 -319.5t-184 -222t-276 -129.5t-343 -42q-185 0 -345 42t-278 129.5t-185 222t-67 319.5q0 123 31 223.5t87 180t135.5 137.5t177 96.5t209.5 57t235 18.5q184 0 343 -42t276 -129.5t184 -222t67 -319.5zM1751 686q0 146 -47.5 258t-140.5 188.5
t-231.5 116t-321.5 39.5t-322.5 -40t-233.5 -116.5t-142 -189t-48 -256.5q0 -146 48 -258t142 -188.5t233.5 -116t322.5 -39.5t321.5 39.5t231.5 116t140.5 188.5t47.5 258zM1364 1687l-440 -186l-39 78l428 213z" />
    <glyph glyph-name="Ocircumflex" unicode="&#xd4;" horiz-adv-x="2015" 
d="M1880 686q0 -185 -67 -319.5t-184 -222t-276 -129.5t-343 -42q-185 0 -345 42t-278 129.5t-185 222t-67 319.5q0 123 31 223.5t87 180t135.5 137.5t177 96.5t209.5 57t235 18.5q184 0 343 -42t276 -129.5t184 -222t67 -319.5zM1751 686q0 146 -47.5 258t-140.5 188.5
t-231.5 116t-321.5 39.5t-322.5 -40t-233.5 -116.5t-142 -189t-48 -256.5q0 -146 48 -258t142 -188.5t233.5 -116t322.5 -39.5t321.5 39.5t231.5 116t140.5 188.5t47.5 258zM1358 1501l-348 159l-348 -159l-39 71l387 220l387 -220z" />
    <glyph glyph-name="ocircumflex" unicode="&#xf4;" horiz-adv-x="2015" 
d="M1880 686q0 -185 -67 -319.5t-184 -222t-276 -129.5t-343 -42q-185 0 -345 42t-278 129.5t-185 222t-67 319.5q0 123 31 223.5t87 180t135.5 137.5t177 96.5t209.5 57t235 18.5q184 0 343 -42t276 -129.5t184 -222t67 -319.5zM1751 686q0 146 -47.5 258t-140.5 188.5
t-231.5 116t-321.5 39.5t-322.5 -40t-233.5 -116.5t-142 -189t-48 -256.5q0 -146 48 -258t142 -188.5t233.5 -116t322.5 -39.5t321.5 39.5t231.5 116t140.5 188.5t47.5 258zM1358 1501l-348 159l-348 -159l-39 71l387 220l387 -220z" />
    <glyph glyph-name="Otilde" unicode="&#xd5;" horiz-adv-x="2015" 
d="M1880 686q0 -185 -67 -319.5t-184 -222t-276 -129.5t-343 -42q-185 0 -345 42t-278 129.5t-185 222t-67 319.5q0 123 31 223.5t87 180t135.5 137.5t177 96.5t209.5 57t235 18.5q184 0 343 -42t276 -129.5t184 -222t67 -319.5zM1751 686q0 146 -47.5 258t-140.5 188.5
t-231.5 116t-321.5 39.5t-322.5 -40t-233.5 -116.5t-142 -189t-48 -256.5q0 -146 48 -258t142 -188.5t233.5 -116t322.5 -39.5t321.5 39.5t231.5 116t140.5 188.5t47.5 258zM1364 1730q0 -26 -7.5 -64t-28.5 -73t-57.5 -59.5t-94.5 -24.5q-47 0 -92.5 19t-88 41.5l-81 41.5
t-70.5 19q-30 0 -47.5 -15t-26.5 -35.5t-12 -40.5t-4 -30h-95q0 25 8 62.5t29 73t58 60.5t96 25q39 0 82 -19t86.5 -41.5t84.5 -41.5t77 -19q30 0 47.5 15t26.5 35t12 40t4 31h94v0z" />
    <glyph glyph-name="otilde" unicode="&#xf5;" horiz-adv-x="2015" 
d="M1880 686q0 -185 -67 -319.5t-184 -222t-276 -129.5t-343 -42q-185 0 -345 42t-278 129.5t-185 222t-67 319.5q0 123 31 223.5t87 180t135.5 137.5t177 96.5t209.5 57t235 18.5q184 0 343 -42t276 -129.5t184 -222t67 -319.5zM1751 686q0 146 -47.5 258t-140.5 188.5
t-231.5 116t-321.5 39.5t-322.5 -40t-233.5 -116.5t-142 -189t-48 -256.5q0 -146 48 -258t142 -188.5t233.5 -116t322.5 -39.5t321.5 39.5t231.5 116t140.5 188.5t47.5 258zM1364 1730q0 -26 -7.5 -64t-28.5 -73t-57.5 -59.5t-94.5 -24.5q-47 0 -92.5 19t-88 41.5l-81 41.5
t-70.5 19q-30 0 -47.5 -15t-26.5 -35.5t-12 -40.5t-4 -30h-95q0 25 8 62.5t29 73t58 60.5t96 25q39 0 82 -19t86.5 -41.5t84.5 -41.5t77 -19q30 0 47.5 15t26.5 35t12 40t4 31h94v0z" />
    <glyph glyph-name="Odieresis" unicode="&#xd6;" horiz-adv-x="2015" 
d="M1880 686q0 -185 -67 -319.5t-184 -222t-276 -129.5t-343 -42q-185 0 -345 42t-278 129.5t-185 222t-67 319.5q0 123 31 223.5t87 180t135.5 137.5t177 96.5t209.5 57t235 18.5q184 0 343 -42t276 -129.5t184 -222t67 -319.5zM1751 686q0 146 -47.5 258t-140.5 188.5
t-231.5 116t-321.5 39.5t-322.5 -40t-233.5 -116.5t-142 -189t-48 -256.5q0 -146 48 -258t142 -188.5t233.5 -116t322.5 -39.5t321.5 39.5t231.5 116t140.5 188.5t47.5 258zM735 1521v148h148v-148h-148zM1137 1521v148h147v-148h-147z" />
    <glyph glyph-name="odieresis" unicode="&#xf6;" horiz-adv-x="2015" 
d="M1880 686q0 -185 -67 -319.5t-184 -222t-276 -129.5t-343 -42q-185 0 -345 42t-278 129.5t-185 222t-67 319.5q0 123 31 223.5t87 180t135.5 137.5t177 96.5t209.5 57t235 18.5q184 0 343 -42t276 -129.5t184 -222t67 -319.5zM1751 686q0 146 -47.5 258t-140.5 188.5
t-231.5 116t-321.5 39.5t-322.5 -40t-233.5 -116.5t-142 -189t-48 -256.5q0 -146 48 -258t142 -188.5t233.5 -116t322.5 -39.5t321.5 39.5t231.5 116t140.5 188.5t47.5 258zM735 1521v148h148v-148h-148zM1137 1521v148h147v-148h-147z" />
    <glyph glyph-name="Omacron" unicode="&#x14c;" horiz-adv-x="2015" 
d="M1880 686q0 -185 -67 -319.5t-184 -222t-276 -129.5t-343 -42q-185 0 -345 42t-278 129.5t-185 222t-67 319.5q0 123 31 223.5t87 180t135.5 137.5t177 96.5t209.5 57t235 18.5q184 0 343 -42t276 -129.5t184 -222t67 -319.5zM1751 686q0 146 -47.5 258t-140.5 188.5
t-231.5 116t-321.5 39.5t-322.5 -40t-233.5 -116.5t-142 -189t-48 -256.5q0 -146 48 -258t142 -188.5t233.5 -116t322.5 -39.5t321.5 39.5t231.5 116t140.5 188.5t47.5 258zM735 1531v113h549v-113h-549z" />
    <glyph glyph-name="omacron" unicode="&#x14d;" horiz-adv-x="2015" 
d="M1880 686q0 -185 -67 -319.5t-184 -222t-276 -129.5t-343 -42q-185 0 -345 42t-278 129.5t-185 222t-67 319.5q0 123 31 223.5t87 180t135.5 137.5t177 96.5t209.5 57t235 18.5q184 0 343 -42t276 -129.5t184 -222t67 -319.5zM1751 686q0 146 -47.5 258t-140.5 188.5
t-231.5 116t-321.5 39.5t-322.5 -40t-233.5 -116.5t-142 -189t-48 -256.5q0 -146 48 -258t142 -188.5t233.5 -116t322.5 -39.5t321.5 39.5t231.5 116t140.5 188.5t47.5 258zM735 1531v113h549v-113h-549z" />
    <glyph glyph-name="Obreve" unicode="&#x14e;" horiz-adv-x="2015" 
d="M1880 686q0 -185 -67 -319.5t-184 -222t-276 -129.5t-343 -42q-185 0 -345 42t-278 129.5t-185 222t-67 319.5q0 123 31 223.5t87 180t135.5 137.5t177 96.5t209.5 57t235 18.5q184 0 343 -42t276 -129.5t184 -222t67 -319.5zM1751 686q0 146 -47.5 258t-140.5 188.5
t-231.5 116t-321.5 39.5t-322.5 -40t-233.5 -116.5t-142 -189t-48 -256.5q0 -146 48 -258t142 -188.5t233.5 -116t322.5 -39.5t321.5 39.5t231.5 116t140.5 188.5t47.5 258zM1356 1751q-9 -37 -31 -79t-62 -77t-101.5 -58.5t-151.5 -23.5t-152 23.5t-102 58.5t-61.5 77
t-30.5 79h116q6 -18 20.5 -41.5t41 -44.5t67.5 -35.5t101 -14.5q59 0 100 14.5t68 35.5t42 44.5t21 41.5h115v0z" />
    <glyph glyph-name="obreve" unicode="&#x14f;" horiz-adv-x="2015" 
d="M1880 686q0 -185 -67 -319.5t-184 -222t-276 -129.5t-343 -42q-185 0 -345 42t-278 129.5t-185 222t-67 319.5q0 123 31 223.5t87 180t135.5 137.5t177 96.5t209.5 57t235 18.5q184 0 343 -42t276 -129.5t184 -222t67 -319.5zM1751 686q0 146 -47.5 258t-140.5 188.5
t-231.5 116t-321.5 39.5t-322.5 -40t-233.5 -116.5t-142 -189t-48 -256.5q0 -146 48 -258t142 -188.5t233.5 -116t322.5 -39.5t321.5 39.5t231.5 116t140.5 188.5t47.5 258zM1356 1751q-9 -37 -31 -79t-62 -77t-101.5 -58.5t-151.5 -23.5t-152 23.5t-102 58.5t-61.5 77
t-30.5 79h116q6 -18 20.5 -41.5t41 -44.5t67.5 -35.5t101 -14.5q59 0 100 14.5t68 35.5t42 44.5t21 41.5h115v0z" />
    <glyph glyph-name="Ohungarumlaut" unicode="&#x150;" horiz-adv-x="2015" 
d="M1880 686q0 -185 -67 -319.5t-184 -222t-276 -129.5t-343 -42q-185 0 -345 42t-278 129.5t-185 222t-67 319.5q0 123 31 223.5t87 180t135.5 137.5t177 96.5t209.5 57t235 18.5q184 0 343 -42t276 -129.5t184 -222t67 -319.5zM1751 686q0 146 -47.5 258t-140.5 188.5
t-231.5 116t-321.5 39.5t-322.5 -40t-233.5 -116.5t-142 -189t-48 -256.5q0 -146 48 -258t142 -188.5t233.5 -116t322.5 -39.5t321.5 39.5t231.5 116t140.5 188.5t47.5 258zM1077 1687l-297 -186l-53 71l285 213zM1432 1687l-297 -186l-54 71l285 213z" />
    <glyph glyph-name="ohungarumlaut" unicode="&#x151;" horiz-adv-x="2015" 
d="M1880 686q0 -185 -67 -319.5t-184 -222t-276 -129.5t-343 -42q-185 0 -345 42t-278 129.5t-185 222t-67 319.5q0 123 31 223.5t87 180t135.5 137.5t177 96.5t209.5 57t235 18.5q184 0 343 -42t276 -129.5t184 -222t67 -319.5zM1751 686q0 146 -47.5 258t-140.5 188.5
t-231.5 116t-321.5 39.5t-322.5 -40t-233.5 -116.5t-142 -189t-48 -256.5q0 -146 48 -258t142 -188.5t233.5 -116t322.5 -39.5t321.5 39.5t231.5 116t140.5 188.5t47.5 258zM1077 1687l-297 -186l-53 71l285 213zM1432 1687l-297 -186l-54 71l285 213z" />
    <glyph glyph-name="Oslash" unicode="&#xd8;" horiz-adv-x="2015" 
d="M1880 686q0 -185 -67 -319.5t-184 -222t-276 -129.5t-343 -42q-112 0 -213 15.5t-191 44.5l-153 -215h-129l182 254q-85 40 -153.5 98.5t-117 135t-74.5 171.5t-26 209q0 123 31 223.5t87 180t135.5 137.5t177 96.5t209.5 57t235 18.5q220 0 403 -62l156 217h127
l-185 -256q85 -41 153 -99t116 -134t74 -170.5t26 -208.5zM1346 1245q-141 43 -336 43q-183 0 -322.5 -40t-233.5 -116.5t-142 -189t-48 -256.5q0 -189 77.5 -319t231.5 -201l111 153zM674 127q142 -43 336 -43q183 0 321.5 39.5t231.5 116t140.5 188.5t47.5 258
q0 187 -76.5 317.5t-228.5 202.5l-111 -153z" />
    <glyph glyph-name="oslash" unicode="&#xf8;" horiz-adv-x="2015" 
d="M1880 686q0 -185 -67 -319.5t-184 -222t-276 -129.5t-343 -42q-112 0 -213 15.5t-191 44.5l-153 -215h-129l182 254q-85 40 -153.5 98.5t-117 135t-74.5 171.5t-26 209q0 123 31 223.5t87 180t135.5 137.5t177 96.5t209.5 57t235 18.5q220 0 403 -62l156 217h127
l-185 -256q85 -41 153 -99t116 -134t74 -170.5t26 -208.5zM1346 1245q-141 43 -336 43q-183 0 -322.5 -40t-233.5 -116.5t-142 -189t-48 -256.5q0 -189 77.5 -319t231.5 -201l111 153zM674 127q142 -43 336 -43q183 0 321.5 39.5t231.5 116t140.5 188.5t47.5 258
q0 187 -76.5 317.5t-228.5 202.5l-111 -153z" />
    <glyph glyph-name="Oslashacute" unicode="&#x1fe;" horiz-adv-x="2015" 
d="M1880 686q0 -185 -67 -319.5t-184 -222t-276 -129.5t-343 -42q-112 0 -213 15.5t-191 44.5l-153 -215h-129l182 254q-85 40 -153.5 98.5t-117 135t-74.5 171.5t-26 209q0 123 31 223.5t87 180t135.5 137.5t177 96.5t209.5 57t235 18.5q220 0 403 -62l156 217h127
l-185 -256q85 -41 153 -99t116 -134t74 -170.5t26 -208.5zM1346 1245q-141 43 -336 43q-183 0 -322.5 -40t-233.5 -116.5t-142 -189t-48 -256.5q0 -189 77.5 -319t231.5 -201l111 153zM674 127q142 -43 336 -43q183 0 321.5 39.5t231.5 116t140.5 188.5t47.5 258
q0 187 -76.5 317.5t-228.5 202.5l-111 -153zM1366 1687l-440 -186l-39 78l428 213z" />
    <glyph glyph-name="oslashacute" unicode="&#x1ff;" horiz-adv-x="2015" 
d="M1880 686q0 -185 -67 -319.5t-184 -222t-276 -129.5t-343 -42q-112 0 -213 15.5t-191 44.5l-153 -215h-129l182 254q-85 40 -153.5 98.5t-117 135t-74.5 171.5t-26 209q0 123 31 223.5t87 180t135.5 137.5t177 96.5t209.5 57t235 18.5q220 0 403 -62l156 217h127
l-185 -256q85 -41 153 -99t116 -134t74 -170.5t26 -208.5zM1346 1245q-141 43 -336 43q-183 0 -322.5 -40t-233.5 -116.5t-142 -189t-48 -256.5q0 -189 77.5 -319t231.5 -201l111 153zM674 127q142 -43 336 -43q183 0 321.5 39.5t231.5 116t140.5 188.5t47.5 258
q0 187 -76.5 317.5t-228.5 202.5l-111 -153zM1366 1687l-440 -186l-39 78l428 213z" />
    <glyph glyph-name="OE" unicode="&#x152;" horiz-adv-x="2742" 
d="M1427 0l-104.5 -10t-105 -9t-110 -6t-118.5 -2q-177 0 -333 42t-271.5 129.5t-182.5 222t-67 319.5q0 123 32 223.5t89.5 180t137.5 137.5t174.5 96.5t201.5 57t219 18.5q62 0 118.5 -2t110 -5t105 -7.5t104.5 -10.5h1145v-117h-1009v-473h958v-116h-958v-551h1024v-117
h-1160zM989 84q125 0 236 8.5t202 30.5v1126q-91 22 -202 30.5t-236 8.5q-167 0 -301.5 -40t-228.5 -116.5t-144.5 -189t-50.5 -256.5q0 -146 47.5 -258t140 -188.5t227.5 -116t310 -39.5z" />
    <glyph glyph-name="oe" unicode="&#x153;" horiz-adv-x="3459" 
d="M3232 72q-85 -26 -156.5 -44.5t-141.5 -30t-142.5 -17t-159.5 -5.5q-150 0 -278.5 27t-232 78.5t-180.5 125.5t-124 169q-48 -104 -127.5 -179.5t-184 -125t-230.5 -73.5t-265 -24q-185 0 -345 42t-278 129.5t-185 222t-67 319.5q0 123 31 223.5t87 180t135.5 137.5
t177 96.5t209.5 57t235 18.5q141 0 268 -24.5t232 -75.5t184.5 -128.5t126.5 -183.5q46 92 118.5 166.5t167 127t209.5 80.5t246 28q187 0 333 -50t245.5 -143t151.5 -225.5t52 -298.5v-31h-1464q11 -128 64 -231t150.5 -175t240 -110.5t331.5 -38.5q81 0 164.5 11
t159.5 29.5t139 42t103 48.5v-145zM1751 686q0 146 -47.5 258t-140.5 188.5t-231.5 116t-321.5 39.5t-322.5 -40t-233.5 -116.5t-142 -189t-48 -256.5q0 -146 48 -258t142 -188.5t233.5 -116t322.5 -39.5t321.5 39.5t231.5 116t140.5 188.5t47.5 258zM3222 750
q-7 105 -47 200.5t-119.5 168.5t-202 116t-293.5 43q-161 0 -282 -43t-205 -115.5t-132 -168t-61 -201.5h1342z" />
    <glyph glyph-name="Thorn" unicode="&#xde;" horiz-adv-x="1612" 
d="M1489 725q0 -105 -33.5 -184.5t-105.5 -133t-185.5 -80t-273.5 -26.5h-535v-301h-125v1374h125v-227h535q160 0 273.5 -26.5t185.5 -79t105.5 -132t33.5 -184.5zM1360 725q0 97 -35.5 157t-106 93t-176.5 44t-247 11h-439v-612h439q55 0 118.5 -0.5t126 5.5t120.5 22.5
t102.5 50.5t71 89.5t26.5 139.5z" />
    <glyph glyph-name="thorn" unicode="&#xfe;" horiz-adv-x="1612" 
d="M1489 725q0 -105 -33.5 -184.5t-105.5 -133t-185.5 -80t-273.5 -26.5h-535v-301h-125v1374h125v-227h535q160 0 273.5 -26.5t185.5 -79t105.5 -132t33.5 -184.5zM1360 725q0 97 -35.5 157t-106 93t-176.5 44t-247 11h-439v-612h439q55 0 118.5 -0.5t126 5.5t120.5 22.5
t102.5 50.5t71 89.5t26.5 139.5z" />
    <glyph glyph-name="Racute" unicode="&#x154;" horiz-adv-x="1706" 
d="M356 588v-588h-125v1374h684q157 0 269 -24.5t183.5 -74t104.5 -123.5t33 -173q0 -154 -81 -246.5t-261 -126.5l469 -606h-157l-443 592q-28 -2 -57 -3t-60 -1h-559zM1376 979q0 88 -31 142.5t-101 84.5t-183.5 40.5t-278.5 10.5h-426v-552h422q165 0 279 9.5t185 39
t102.5 83t31.5 142.5zM1133 1687l-440 -186l-39 78l428 213z" />
    <glyph glyph-name="racute" unicode="&#x155;" horiz-adv-x="1249" 
d="M1249 1268q-29 9 -80.5 19.5t-132.5 10.5q-112 0 -210.5 -27.5t-183 -74.5t-156.5 -109.5t-130 -132.5v-954h-125v1374h125v-280q67 69 145.5 127t165.5 99.5t182.5 65t197.5 23.5q35 0 63 -1.5t51.5 -4t44.5 -5.5t43 -7v-123v0zM1038 1687l-440 -186l-39 78l428 213z
" />
    <glyph glyph-name="Rcommaaccent" unicode="&#x156;" horiz-adv-x="1706" 
d="M356 588v-588h-125v1374h684q157 0 269 -24.5t183.5 -74t104.5 -123.5t33 -173q0 -154 -81 -246.5t-261 -126.5l469 -606h-157l-443 592q-28 -2 -57 -3t-60 -1h-559zM1376 979q0 88 -31 142.5t-101 84.5t-183.5 40.5t-278.5 10.5h-426v-552h422q165 0 279 9.5t185 39
t102.5 83t31.5 142.5zM860 -416h-101l39 273h144z" />
    <glyph glyph-name="rcommaaccent" unicode="&#x157;" horiz-adv-x="1249" 
d="M1249 1268q-29 9 -80.5 19.5t-132.5 10.5q-112 0 -210.5 -27.5t-183 -74.5t-156.5 -109.5t-130 -132.5v-954h-125v1374h125v-280q67 69 145.5 127t165.5 99.5t182.5 65t197.5 23.5q35 0 63 -1.5t51.5 -4t44.5 -5.5t43 -7v-123v0zM306 -416h-101l39 273h144z" />
    <glyph glyph-name="Rcaron" unicode="&#x158;" horiz-adv-x="1706" 
d="M356 588v-588h-125v1374h684q157 0 269 -24.5t183.5 -74t104.5 -123.5t33 -173q0 -154 -81 -246.5t-261 -126.5l469 -606h-157l-443 592q-28 -2 -57 -3t-60 -1h-559zM1376 979q0 88 -31 142.5t-101 84.5t-183.5 40.5t-278.5 10.5h-426v-552h422q165 0 279 9.5t185 39
t102.5 83t31.5 142.5zM1166 1720l-387 -219l-387 219l39 72l348 -160l348 160z" />
    <glyph glyph-name="rcaron" unicode="&#x159;" horiz-adv-x="1249" 
d="M1249 1268q-29 9 -80.5 19.5t-132.5 10.5q-112 0 -210.5 -27.5t-183 -74.5t-156.5 -109.5t-130 -132.5v-954h-125v1374h125v-280q67 69 145.5 127t165.5 99.5t182.5 65t197.5 23.5q35 0 63 -1.5t51.5 -4t44.5 -5.5t43 -7v-123v0zM1071 1720l-387 -219l-387 219l39 72
l348 -160l348 160z" />
    <glyph glyph-name="Sacute" unicode="&#x15a;" horiz-adv-x="1612" 
d="M1341 1171q-39 19 -90 40.5t-116.5 38.5t-147.5 28.5t-182 11.5q-121 0 -215.5 -14t-160 -43.5t-100 -74.5t-34.5 -107q0 -52 32.5 -91t88 -69t130 -54.5t158 -46l172 -43.5t172 -47.5t158 -57t130 -73.5t88 -96t32.5 -125q0 -77 -29 -134.5t-78.5 -99t-116 -69
t-142 -43.5t-156 -22.5t-158.5 -6.5q-179 0 -324.5 26t-277.5 71v153q136 -81 287.5 -111t318.5 -30q118 0 218 14t173 44.5t113.5 79.5t40.5 120q0 57 -32.5 100t-88 75.5t-130 57.5t-157.5 46.5t-171.5 42t-171.5 44.5t-157.5 54t-130 70.5t-88 93.5t-32.5 123
q0 69 26 122.5t71.5 92.5t106.5 65.5t130.5 42t144.5 22.5t148 7q80 0 151.5 -7t138 -18.5t130 -26.5t128.5 -32v-144zM1147 1687l-440 -186l-39 78l428 213z" />
    <glyph glyph-name="sacute" unicode="&#x15b;" horiz-adv-x="1612" 
d="M1341 1171q-39 19 -90 40.5t-116.5 38.5t-147.5 28.5t-182 11.5q-121 0 -215.5 -14t-160 -43.5t-100 -74.5t-34.5 -107q0 -52 32.5 -91t88 -69t130 -54.5t158 -46l172 -43.5t172 -47.5t158 -57t130 -73.5t88 -96t32.5 -125q0 -77 -29 -134.5t-78.5 -99t-116 -69
t-142 -43.5t-156 -22.5t-158.5 -6.5q-179 0 -324.5 26t-277.5 71v153q136 -81 287.5 -111t318.5 -30q118 0 218 14t173 44.5t113.5 79.5t40.5 120q0 57 -32.5 100t-88 75.5t-130 57.5t-157.5 46.5t-171.5 42t-171.5 44.5t-157.5 54t-130 70.5t-88 93.5t-32.5 123
q0 69 26 122.5t71.5 92.5t106.5 65.5t130.5 42t144.5 22.5t148 7q80 0 151.5 -7t138 -18.5t130 -26.5t128.5 -32v-144zM1147 1687l-440 -186l-39 78l428 213z" />
    <glyph glyph-name="Scircumflex" unicode="&#x15c;" horiz-adv-x="1612" 
d="M1341 1171q-39 19 -90 40.5t-116.5 38.5t-147.5 28.5t-182 11.5q-121 0 -215.5 -14t-160 -43.5t-100 -74.5t-34.5 -107q0 -52 32.5 -91t88 -69t130 -54.5t158 -46l172 -43.5t172 -47.5t158 -57t130 -73.5t88 -96t32.5 -125q0 -77 -29 -134.5t-78.5 -99t-116 -69
t-142 -43.5t-156 -22.5t-158.5 -6.5q-179 0 -324.5 26t-277.5 71v153q136 -81 287.5 -111t318.5 -30q118 0 218 14t173 44.5t113.5 79.5t40.5 120q0 57 -32.5 100t-88 75.5t-130 57.5t-157.5 46.5t-171.5 42t-171.5 44.5t-157.5 54t-130 70.5t-88 93.5t-32.5 123
q0 69 26 122.5t71.5 92.5t106.5 65.5t130.5 42t144.5 22.5t148 7q80 0 151.5 -7t138 -18.5t130 -26.5t128.5 -32v-144zM1141 1501l-348 159l-348 -159l-39 71l387 220l387 -220z" />
    <glyph glyph-name="scircumflex" unicode="&#x15d;" horiz-adv-x="1612" 
d="M1341 1171q-39 19 -90 40.5t-116.5 38.5t-147.5 28.5t-182 11.5q-121 0 -215.5 -14t-160 -43.5t-100 -74.5t-34.5 -107q0 -52 32.5 -91t88 -69t130 -54.5t158 -46l172 -43.5t172 -47.5t158 -57t130 -73.5t88 -96t32.5 -125q0 -77 -29 -134.5t-78.5 -99t-116 -69
t-142 -43.5t-156 -22.5t-158.5 -6.5q-179 0 -324.5 26t-277.5 71v153q136 -81 287.5 -111t318.5 -30q118 0 218 14t173 44.5t113.5 79.5t40.5 120q0 57 -32.5 100t-88 75.5t-130 57.5t-157.5 46.5t-171.5 42t-171.5 44.5t-157.5 54t-130 70.5t-88 93.5t-32.5 123
q0 69 26 122.5t71.5 92.5t106.5 65.5t130.5 42t144.5 22.5t148 7q80 0 151.5 -7t138 -18.5t130 -26.5t128.5 -32v-144zM1141 1501l-348 159l-348 -159l-39 71l387 220l387 -220z" />
    <glyph glyph-name="Scedilla" unicode="&#x15e;" horiz-adv-x="1612" 
d="M1341 1171q-39 19 -90 40.5t-116.5 38.5t-147.5 28.5t-182 11.5q-121 0 -215.5 -14t-160 -43.5t-100 -74.5t-34.5 -107q0 -52 32.5 -91t88 -69t130 -54.5t158 -46l172 -43.5t172 -47.5t158 -57t130 -73.5t88 -96t32.5 -125q0 -77 -29 -134.5t-78.5 -99t-116 -69
t-142 -43.5t-156 -22.5t-158.5 -6.5q-179 0 -324.5 26t-277.5 71v153q136 -81 287.5 -111t318.5 -30q118 0 218 14t173 44.5t113.5 79.5t40.5 120q0 57 -32.5 100t-88 75.5t-130 57.5t-157.5 46.5t-171.5 42t-171.5 44.5t-157.5 54t-130 70.5t-88 93.5t-32.5 123
q0 69 26 122.5t71.5 92.5t106.5 65.5t130.5 42t144.5 22.5t148 7q80 0 151.5 -7t138 -18.5t130 -26.5t128.5 -32v-144zM823 -98q44 0 82.5 -7t67 -23.5t45 -44t16.5 -69.5q0 -45 -18.5 -75.5t-51.5 -49t-79 -26.5t-101 -8q-57 0 -111 8.5t-98 17.5v101q45 -16 97.5 -26.5
t103.5 -10.5q42 0 71 5t46.5 14t25 22t7.5 28q0 19 -10 32t-27 20.5t-38.5 10.5t-45.5 3q-26 0 -53 -1.5t-50 -4.5l76 202h90z" />
    <glyph glyph-name="scedilla" unicode="&#x15f;" horiz-adv-x="1612" 
d="M1341 1171q-39 19 -90 40.5t-116.5 38.5t-147.5 28.5t-182 11.5q-121 0 -215.5 -14t-160 -43.5t-100 -74.5t-34.5 -107q0 -52 32.5 -91t88 -69t130 -54.5t158 -46l172 -43.5t172 -47.5t158 -57t130 -73.5t88 -96t32.5 -125q0 -77 -29 -134.5t-78.5 -99t-116 -69
t-142 -43.5t-156 -22.5t-158.5 -6.5q-179 0 -324.5 26t-277.5 71v153q136 -81 287.5 -111t318.5 -30q118 0 218 14t173 44.5t113.5 79.5t40.5 120q0 57 -32.5 100t-88 75.5t-130 57.5t-157.5 46.5t-171.5 42t-171.5 44.5t-157.5 54t-130 70.5t-88 93.5t-32.5 123
q0 69 26 122.5t71.5 92.5t106.5 65.5t130.5 42t144.5 22.5t148 7q80 0 151.5 -7t138 -18.5t130 -26.5t128.5 -32v-144zM823 -98q44 0 82.5 -7t67 -23.5t45 -44t16.5 -69.5q0 -45 -18.5 -75.5t-51.5 -49t-79 -26.5t-101 -8q-57 0 -111 8.5t-98 17.5v101q45 -16 97.5 -26.5
t103.5 -10.5q42 0 71 5t46.5 14t25 22t7.5 28q0 19 -10 32t-27 20.5t-38.5 10.5t-45.5 3q-26 0 -53 -1.5t-50 -4.5l76 202h90z" />
    <glyph glyph-name="Scaron" unicode="&#x160;" horiz-adv-x="1612" 
d="M1341 1171q-39 19 -90 40.5t-116.5 38.5t-147.5 28.5t-182 11.5q-121 0 -215.5 -14t-160 -43.5t-100 -74.5t-34.5 -107q0 -52 32.5 -91t88 -69t130 -54.5t158 -46l172 -43.5t172 -47.5t158 -57t130 -73.5t88 -96t32.5 -125q0 -77 -29 -134.5t-78.5 -99t-116 -69
t-142 -43.5t-156 -22.5t-158.5 -6.5q-179 0 -324.5 26t-277.5 71v153q136 -81 287.5 -111t318.5 -30q118 0 218 14t173 44.5t113.5 79.5t40.5 120q0 57 -32.5 100t-88 75.5t-130 57.5t-157.5 46.5t-171.5 42t-171.5 44.5t-157.5 54t-130 70.5t-88 93.5t-32.5 123
q0 69 26 122.5t71.5 92.5t106.5 65.5t130.5 42t144.5 22.5t148 7q80 0 151.5 -7t138 -18.5t130 -26.5t128.5 -32v-144zM1180 1720l-387 -219l-387 219l39 72l348 -160l348 160z" />
    <glyph glyph-name="scaron" unicode="&#x161;" horiz-adv-x="1612" 
d="M1341 1171q-39 19 -90 40.5t-116.5 38.5t-147.5 28.5t-182 11.5q-121 0 -215.5 -14t-160 -43.5t-100 -74.5t-34.5 -107q0 -52 32.5 -91t88 -69t130 -54.5t158 -46l172 -43.5t172 -47.5t158 -57t130 -73.5t88 -96t32.5 -125q0 -77 -29 -134.5t-78.5 -99t-116 -69
t-142 -43.5t-156 -22.5t-158.5 -6.5q-179 0 -324.5 26t-277.5 71v153q136 -81 287.5 -111t318.5 -30q118 0 218 14t173 44.5t113.5 79.5t40.5 120q0 57 -32.5 100t-88 75.5t-130 57.5t-157.5 46.5t-171.5 42t-171.5 44.5t-157.5 54t-130 70.5t-88 93.5t-32.5 123
q0 69 26 122.5t71.5 92.5t106.5 65.5t130.5 42t144.5 22.5t148 7q80 0 151.5 -7t138 -18.5t130 -26.5t128.5 -32v-144zM1180 1720l-387 -219l-387 219l39 72l348 -160l348 160z" />
    <glyph glyph-name="Tcommaaccent" unicode="&#x162;" horiz-adv-x="1452" 
d="M788 1260v-1260h-124v1260h-625v114h1374v-114h-625zM733 -416h-101l39 273h144z" />
    <glyph glyph-name="tcommaaccent" unicode="&#x163;" horiz-adv-x="1452" 
d="M788 1260v-1260h-124v1260h-625v114h1374v-114h-625zM733 -416h-101l39 273h144z" />
    <glyph glyph-name="Tcaron" unicode="&#x164;" horiz-adv-x="1452" 
d="M788 1260v-1260h-124v1260h-625v114h1374v-114h-625zM1112 1720l-387 -219l-387 219l39 72l348 -160l348 160z" />
    <glyph glyph-name="tcaron" unicode="&#x165;" horiz-adv-x="1452" 
d="M788 1260v-1260h-124v1260h-625v114h1374v-114h-625zM1114 1720l-387 -219l-387 219l39 72l348 -160l348 160z" />
    <glyph glyph-name="Tbar" unicode="&#x166;" horiz-adv-x="1452" 
d="M788 1260v-416h482v-113h-482v-731h-124v731h-482v113h482v416h-625v114h1374v-114h-625z" />
    <glyph glyph-name="tbar" unicode="&#x167;" horiz-adv-x="1452" 
d="M788 1260v-416h482v-113h-482v-731h-124v731h-482v113h482v416h-625v114h1374v-114h-625z" />
    <glyph glyph-name="Ugrave" unicode="&#xd9;" horiz-adv-x="1825" 
d="M1606 432q0 -103 -43.5 -187.5t-130 -145t-216.5 -93.5t-303 -33t-303 33t-217 93.5t-130.5 145t-43.5 187.5v942h125v-952q0 -69 36.5 -130.5t108.5 -107.5t178 -73t246 -27q139 0 245 27t178 73t108.5 107.5t36.5 130.5v952h125v-942v0zM611 1792l430 -213l-41 -78
l-441 186z" />
    <glyph glyph-name="ugrave" unicode="&#xf9;" horiz-adv-x="1907" 
d="M352 1374v-907q-1 -115 29 -189t86.5 -116.5t137 -59t181.5 -16.5q117 0 229 28.5t211 72t181.5 96.5t140.5 102v989h127v-1374h-127v242q-70 -45 -153 -93.5t-179.5 -89t-206.5 -66.5t-233 -26q-139 0 -242.5 35t-172 98t-102.5 149.5t-34 190.5v934h127zM648 1792
l430 -213l-41 -78l-441 186z" />
    <glyph glyph-name="Uacute" unicode="&#xda;" horiz-adv-x="1825" 
d="M1606 432q0 -103 -43.5 -187.5t-130 -145t-216.5 -93.5t-303 -33t-303 33t-217 93.5t-130.5 145t-43.5 187.5v942h125v-952q0 -69 36.5 -130.5t108.5 -107.5t178 -73t246 -27q139 0 245 27t178 73t108.5 107.5t36.5 130.5v952h125v-942v0zM1268 1687l-440 -186l-39 78
l428 213z" />
    <glyph glyph-name="uacute" unicode="&#xfa;" horiz-adv-x="1907" 
d="M352 1374v-907q-1 -115 29 -189t86.5 -116.5t137 -59t181.5 -16.5q117 0 229 28.5t211 72t181.5 96.5t140.5 102v989h127v-1374h-127v242q-70 -45 -153 -93.5t-179.5 -89t-206.5 -66.5t-233 -26q-139 0 -242.5 35t-172 98t-102.5 149.5t-34 190.5v934h127zM1305 1687
l-440 -186l-39 78l428 213z" />
    <glyph glyph-name="Ucircumflex" unicode="&#xdb;" horiz-adv-x="1825" 
d="M1606 432q0 -103 -43.5 -187.5t-130 -145t-216.5 -93.5t-303 -33t-303 33t-217 93.5t-130.5 145t-43.5 187.5v942h125v-952q0 -69 36.5 -130.5t108.5 -107.5t178 -73t246 -27q139 0 245 27t178 73t108.5 107.5t36.5 130.5v952h125v-942v0zM1262 1501l-348 159l-348 -159
l-39 71l387 220l387 -220z" />
    <glyph glyph-name="ucircumflex" unicode="&#xfb;" horiz-adv-x="1907" 
d="M352 1374v-907q-1 -115 29 -189t86.5 -116.5t137 -59t181.5 -16.5q117 0 229 28.5t211 72t181.5 96.5t140.5 102v989h127v-1374h-127v242q-70 -45 -153 -93.5t-179.5 -89t-206.5 -66.5t-233 -26q-139 0 -242.5 35t-172 98t-102.5 149.5t-34 190.5v934h127zM1299 1501
l-348 159l-348 -159l-39 71l387 220l387 -220z" />
    <glyph glyph-name="Udieresis" unicode="&#xdc;" horiz-adv-x="1825" 
d="M1606 432q0 -103 -43.5 -187.5t-130 -145t-216.5 -93.5t-303 -33t-303 33t-217 93.5t-130.5 145t-43.5 187.5v942h125v-952q0 -69 36.5 -130.5t108.5 -107.5t178 -73t246 -27q139 0 245 27t178 73t108.5 107.5t36.5 130.5v952h125v-942v0zM639 1521v148h148v-148h-148z
M1041 1521v148h147v-148h-147z" />
    <glyph glyph-name="udieresis" unicode="&#xfc;" horiz-adv-x="1907" 
d="M352 1374v-907q-1 -115 29 -189t86.5 -116.5t137 -59t181.5 -16.5q117 0 229 28.5t211 72t181.5 96.5t140.5 102v989h127v-1374h-127v242q-70 -45 -153 -93.5t-179.5 -89t-206.5 -66.5t-233 -26q-139 0 -242.5 35t-172 98t-102.5 149.5t-34 190.5v934h127zM676 1521v148
h148v-148h-148zM1078 1521v148h147v-148h-147z" />
    <glyph glyph-name="Utilde" unicode="&#x168;" horiz-adv-x="1825" 
d="M1606 432q0 -103 -43.5 -187.5t-130 -145t-216.5 -93.5t-303 -33t-303 33t-217 93.5t-130.5 145t-43.5 187.5v942h125v-952q0 -69 36.5 -130.5t108.5 -107.5t178 -73t246 -27q139 0 245 27t178 73t108.5 107.5t36.5 130.5v952h125v-942v0zM1268 1730q0 -26 -7.5 -64
t-28.5 -73t-57.5 -59.5t-94.5 -24.5q-47 0 -92.5 19t-88 41.5l-81 41.5t-70.5 19q-30 0 -47.5 -15t-26.5 -35.5t-12 -40.5t-4 -30h-95q0 25 8 62.5t29 73t58 60.5t96 25q39 0 82 -19t86.5 -41.5t84.5 -41.5t77 -19q30 0 47.5 15t26.5 35t12 40t4 31h94v0z" />
    <glyph glyph-name="utilde" unicode="&#x169;" horiz-adv-x="1907" 
d="M352 1374v-907q-1 -115 29 -189t86.5 -116.5t137 -59t181.5 -16.5q117 0 229 28.5t211 72t181.5 96.5t140.5 102v989h127v-1374h-127v242q-70 -45 -153 -93.5t-179.5 -89t-206.5 -66.5t-233 -26q-139 0 -242.5 35t-172 98t-102.5 149.5t-34 190.5v934h127zM1305 1730
q0 -26 -7.5 -64t-28.5 -73t-57.5 -59.5t-94.5 -24.5q-47 0 -92.5 19t-88 41.5l-81 41.5t-70.5 19q-30 0 -47.5 -15t-26.5 -35.5t-12 -40.5t-4 -30h-95q0 25 8 62.5t29 73t58 60.5t96 25q39 0 82 -19t86.5 -41.5t84.5 -41.5t77 -19q30 0 47.5 15t26.5 35t12 40t4 31h94v0z
" />
    <glyph glyph-name="Umacron" unicode="&#x16a;" horiz-adv-x="1825" 
d="M1606 432q0 -103 -43.5 -187.5t-130 -145t-216.5 -93.5t-303 -33t-303 33t-217 93.5t-130.5 145t-43.5 187.5v942h125v-952q0 -69 36.5 -130.5t108.5 -107.5t178 -73t246 -27q139 0 245 27t178 73t108.5 107.5t36.5 130.5v952h125v-942v0zM639 1531v113h549v-113h-549z
" />
    <glyph glyph-name="umacron" unicode="&#x16b;" horiz-adv-x="1907" 
d="M352 1374v-907q-1 -115 29 -189t86.5 -116.5t137 -59t181.5 -16.5q117 0 229 28.5t211 72t181.5 96.5t140.5 102v989h127v-1374h-127v242q-70 -45 -153 -93.5t-179.5 -89t-206.5 -66.5t-233 -26q-139 0 -242.5 35t-172 98t-102.5 149.5t-34 190.5v934h127zM676 1531v113
h549v-113h-549z" />
    <glyph glyph-name="Ubreve" unicode="&#x16c;" horiz-adv-x="1825" 
d="M1606 432q0 -103 -43.5 -187.5t-130 -145t-216.5 -93.5t-303 -33t-303 33t-217 93.5t-130.5 145t-43.5 187.5v942h125v-952q0 -69 36.5 -130.5t108.5 -107.5t178 -73t246 -27q139 0 245 27t178 73t108.5 107.5t36.5 130.5v952h125v-942v0zM1260 1751q-9 -37 -31 -79
t-62 -77t-101.5 -58.5t-151.5 -23.5t-152 23.5t-102 58.5t-61.5 77t-30.5 79h116q6 -18 20.5 -41.5t41 -44.5t67.5 -35.5t101 -14.5q59 0 100 14.5t68 35.5t42 44.5t21 41.5h115v0z" />
    <glyph glyph-name="ubreve" unicode="&#x16d;" horiz-adv-x="1907" 
d="M352 1374v-907q-1 -115 29 -189t86.5 -116.5t137 -59t181.5 -16.5q117 0 229 28.5t211 72t181.5 96.5t140.5 102v989h127v-1374h-127v242q-70 -45 -153 -93.5t-179.5 -89t-206.5 -66.5t-233 -26q-139 0 -242.5 35t-172 98t-102.5 149.5t-34 190.5v934h127zM1297 1751
q-9 -37 -31 -79t-62 -77t-101.5 -58.5t-151.5 -23.5t-152 23.5t-102 58.5t-61.5 77t-30.5 79h116q6 -18 20.5 -41.5t41 -44.5t67.5 -35.5t101 -14.5q59 0 100 14.5t68 35.5t42 44.5t21 41.5h115v0z" />
    <glyph glyph-name="Uring" unicode="&#x16e;" horiz-adv-x="1825" 
d="M1606 432q0 -103 -43.5 -187.5t-130 -145t-216.5 -93.5t-303 -33t-303 33t-217 93.5t-130.5 145t-43.5 187.5v942h125v-952q0 -69 36.5 -130.5t108.5 -107.5t178 -73t246 -27q139 0 245 27t178 73t108.5 107.5t36.5 130.5v952h125v-942v0zM652 1665q0 43 18.5 78t53 59.5
t83 37.5t107.5 13q58 0 106.5 -13t83 -37.5t53.5 -59.5t19 -78q0 -44 -19 -79t-53.5 -59.5t-83 -37.5t-106.5 -13q-59 0 -107.5 13t-83 37.5t-53 59.5t-18.5 79zM754 1665q0 -41 37.5 -69t122.5 -28q84 0 120.5 28t36.5 69q0 40 -36.5 68t-120.5 28q-85 0 -122.5 -28
t-37.5 -68z" />
    <glyph glyph-name="uring" unicode="&#x16f;" horiz-adv-x="1907" 
d="M352 1374v-907q-1 -115 29 -189t86.5 -116.5t137 -59t181.5 -16.5q117 0 229 28.5t211 72t181.5 96.5t140.5 102v989h127v-1374h-127v242q-70 -45 -153 -93.5t-179.5 -89t-206.5 -66.5t-233 -26q-139 0 -242.5 35t-172 98t-102.5 149.5t-34 190.5v934h127zM689 1665
q0 43 18.5 78t53 59.5t83 37.5t107.5 13q58 0 106.5 -13t83 -37.5t53.5 -59.5t19 -78q0 -44 -19 -79t-53.5 -59.5t-83 -37.5t-106.5 -13q-59 0 -107.5 13t-83 37.5t-53 59.5t-18.5 79zM791 1665q0 -41 37.5 -69t122.5 -28q84 0 120.5 28t36.5 69q0 40 -36.5 68t-120.5 28
q-85 0 -122.5 -28t-37.5 -68z" />
    <glyph glyph-name="Uhungarumlaut" unicode="&#x170;" horiz-adv-x="1825" 
d="M1606 432q0 -103 -43.5 -187.5t-130 -145t-216.5 -93.5t-303 -33t-303 33t-217 93.5t-130.5 145t-43.5 187.5v942h125v-952q0 -69 36.5 -130.5t108.5 -107.5t178 -73t246 -27q139 0 245 27t178 73t108.5 107.5t36.5 130.5v952h125v-942v0zM981 1687l-297 -186l-53 71
l285 213zM1336 1687l-297 -186l-54 71l285 213z" />
    <glyph glyph-name="uhungarumlaut" unicode="&#x171;" horiz-adv-x="1907" 
d="M352 1374v-907q-1 -115 29 -189t86.5 -116.5t137 -59t181.5 -16.5q117 0 229 28.5t211 72t181.5 96.5t140.5 102v989h127v-1374h-127v242q-70 -45 -153 -93.5t-179.5 -89t-206.5 -66.5t-233 -26q-139 0 -242.5 35t-172 98t-102.5 149.5t-34 190.5v934h127zM1018 1687
l-297 -186l-53 71l285 213zM1373 1687l-297 -186l-54 71l285 213z" />
    <glyph glyph-name="Uogonek" unicode="&#x172;" horiz-adv-x="1825" 
d="M1606 432q0 -100 -40.5 -182t-121.5 -142t-202.5 -95t-283.5 -40q-24 -18 -45 -37t-37.5 -38.5t-26 -39.5t-9.5 -40q0 -42 37 -61t106 -19q50 0 94 7.5t86 18.5v-102l-85.5 -12t-110.5 -6q-56 0 -100.5 8.5t-76 27t-48.5 47t-17 68.5q0 51 28.5 94.5t88.5 85.5
q-156 7 -273 43t-194.5 95.5t-116.5 140t-39 178.5v942h125v-952q0 -69 36.5 -130.5t108.5 -107.5t178 -73t246 -27q139 0 245 27t178 73t108.5 107.5t36.5 130.5v952h125v-942v0z" />
    <glyph glyph-name="uogonek" unicode="&#x173;" horiz-adv-x="1907" 
d="M352 1374v-907q-1 -115 29 -189t86.5 -116.5t137 -59t181.5 -16.5q117 0 229 28.5t211 72t181.5 96.5t140.5 102v989h127v-1374q-41 -14 -75.5 -35.5t-59.5 -46t-39 -50.5t-14 -50q0 -42 37 -61t106 -19q50 0 94 7.5t86 18.5v-102l-85.5 -12t-110.5 -6q-56 0 -100.5 8.5
t-76 27t-48.5 47t-17 68.5q0 121 176 215v232q-70 -45 -153 -93.5t-179.5 -89t-206.5 -66.5t-233 -26q-139 0 -242.5 35t-172 98t-102.5 149.5t-34 190.5v934h127z" />
    <glyph glyph-name="Wcircumflex" unicode="&#x174;" horiz-adv-x="2593" 
d="M1380 1374l490 -1274l508 1274h139l-553 -1374h-186l-482 1241l-481 -1241h-186l-553 1374h139l508 -1274l489 1274h168zM1643 1501l-348 159l-348 -159l-39 71l387 220l387 -220z" />
    <glyph glyph-name="wcircumflex" unicode="&#x175;" horiz-adv-x="2593" 
d="M1380 1374l490 -1274l508 1274h139l-553 -1374h-186l-482 1241l-481 -1241h-186l-553 1374h139l508 -1274l489 1274h168zM1643 1501l-348 159l-348 -159l-39 71l387 220l387 -220z" />
    <glyph glyph-name="Wgrave" unicode="&#x1e80;" horiz-adv-x="2593" 
d="M1380 1374l490 -1274l508 1274h139l-553 -1374h-186l-482 1241l-481 -1241h-186l-553 1374h139l508 -1274l489 1274h168zM992 1792l430 -213l-41 -78l-441 186z" />
    <glyph glyph-name="wgrave" unicode="&#x1e81;" horiz-adv-x="2593" 
d="M1380 1374l490 -1274l508 1274h139l-553 -1374h-186l-482 1241l-481 -1241h-186l-553 1374h139l508 -1274l489 1274h168zM992 1792l430 -213l-41 -78l-441 186z" />
    <glyph glyph-name="Wacute" unicode="&#x1e82;" horiz-adv-x="2593" 
d="M1380 1374l490 -1274l508 1274h139l-553 -1374h-186l-482 1241l-481 -1241h-186l-553 1374h139l508 -1274l489 1274h168zM1649 1687l-440 -186l-39 78l428 213z" />
    <glyph glyph-name="wacute" unicode="&#x1e83;" horiz-adv-x="2593" 
d="M1380 1374l490 -1274l508 1274h139l-553 -1374h-186l-482 1241l-481 -1241h-186l-553 1374h139l508 -1274l489 1274h168zM1649 1687l-440 -186l-39 78l428 213z" />
    <glyph glyph-name="Wdieresis" unicode="&#x1e84;" horiz-adv-x="2593" 
d="M1380 1374l490 -1274l508 1274h139l-553 -1374h-186l-482 1241l-481 -1241h-186l-553 1374h139l508 -1274l489 1274h168zM1020 1521v148h148v-148h-148zM1422 1521v148h147v-148h-147z" />
    <glyph glyph-name="wdieresis" unicode="&#x1e85;" horiz-adv-x="2593" 
d="M1380 1374l490 -1274l508 1274h139l-553 -1374h-186l-482 1241l-481 -1241h-186l-553 1374h139l508 -1274l489 1274h168zM1020 1521v148h148v-148h-148zM1422 1521v148h147v-148h-147z" />
    <glyph glyph-name="Yacute" unicode="&#xdd;" horiz-adv-x="1563" 
d="M844 582v-582h-125v582l-645 792h149l559 -688l557 688h150zM1137 1687l-440 -186l-39 78l428 213z" />
    <glyph glyph-name="yacute" unicode="&#xfd;" horiz-adv-x="1866" 
d="M1634 502q0 -135 -63 -233.5t-173.5 -163.5t-261 -96.5t-325.5 -31.5q-190 0 -349 24.5t-278 68.5v145q64 -27 132 -50t145 -40.5t164.5 -27t189.5 -9.5q144 0 270 27.5t219.5 80t148 129.5t54.5 177v260q-48 -65 -117.5 -124.5t-155 -105t-185.5 -73t-211 -27.5
q-126 0 -223.5 23.5t-170 64.5t-122.5 97.5t-80.5 123t-44 139.5t-13.5 148v346h127v-319q0 -115 27.5 -209t90.5 -161t165.5 -103.5t253.5 -36.5q117 0 215 31.5t179 85t147 123.5t118 147v442h127v-872zM1262 1687l-440 -186l-39 78l428 213z" />
    <glyph glyph-name="Ycircumflex" unicode="&#x176;" horiz-adv-x="1563" 
d="M844 582v-582h-125v582l-645 792h149l559 -688l557 688h150zM1131 1501l-348 159l-348 -159l-39 71l387 220l387 -220z" />
    <glyph glyph-name="ycircumflex" unicode="&#x177;" horiz-adv-x="1866" 
d="M1634 502q0 -135 -63 -233.5t-173.5 -163.5t-261 -96.5t-325.5 -31.5q-190 0 -349 24.5t-278 68.5v145q64 -27 132 -50t145 -40.5t164.5 -27t189.5 -9.5q144 0 270 27.5t219.5 80t148 129.5t54.5 177v260q-48 -65 -117.5 -124.5t-155 -105t-185.5 -73t-211 -27.5
q-126 0 -223.5 23.5t-170 64.5t-122.5 97.5t-80.5 123t-44 139.5t-13.5 148v346h127v-319q0 -115 27.5 -209t90.5 -161t165.5 -103.5t253.5 -36.5q117 0 215 31.5t179 85t147 123.5t118 147v442h127v-872zM1256 1501l-348 159l-348 -159l-39 71l387 220l387 -220z" />
    <glyph glyph-name="Ydieresis" unicode="&#x178;" horiz-adv-x="1563" 
d="M844 582v-582h-125v582l-645 792h149l559 -688l557 688h150zM508 1521v148h148v-148h-148zM910 1521v148h147v-148h-147z" />
    <glyph glyph-name="ydieresis" unicode="&#xff;" horiz-adv-x="1866" 
d="M1634 502q0 -135 -63 -233.5t-173.5 -163.5t-261 -96.5t-325.5 -31.5q-190 0 -349 24.5t-278 68.5v145q64 -27 132 -50t145 -40.5t164.5 -27t189.5 -9.5q144 0 270 27.5t219.5 80t148 129.5t54.5 177v260q-48 -65 -117.5 -124.5t-155 -105t-185.5 -73t-211 -27.5
q-126 0 -223.5 23.5t-170 64.5t-122.5 97.5t-80.5 123t-44 139.5t-13.5 148v346h127v-319q0 -115 27.5 -209t90.5 -161t165.5 -103.5t253.5 -36.5q117 0 215 31.5t179 85t147 123.5t118 147v442h127v-872zM633 1521v148h148v-148h-148zM1035 1521v148h147v-148h-147z" />
    <glyph glyph-name="Ygrave" unicode="&#x1ef2;" horiz-adv-x="1563" 
d="M844 582v-582h-125v582l-645 792h149l559 -688l557 688h150zM480 1792l430 -213l-41 -78l-441 186z" />
    <glyph glyph-name="ygrave" unicode="&#x1ef3;" horiz-adv-x="1866" 
d="M1634 502q0 -135 -63 -233.5t-173.5 -163.5t-261 -96.5t-325.5 -31.5q-190 0 -349 24.5t-278 68.5v145q64 -27 132 -50t145 -40.5t164.5 -27t189.5 -9.5q144 0 270 27.5t219.5 80t148 129.5t54.5 177v260q-48 -65 -117.5 -124.5t-155 -105t-185.5 -73t-211 -27.5
q-126 0 -223.5 23.5t-170 64.5t-122.5 97.5t-80.5 123t-44 139.5t-13.5 148v346h127v-319q0 -115 27.5 -209t90.5 -161t165.5 -103.5t253.5 -36.5q117 0 215 31.5t179 85t147 123.5t118 147v442h127v-872zM605 1792l430 -213l-41 -78l-441 186z" />
    <glyph glyph-name="Zacute" unicode="&#x179;" horiz-adv-x="1491" 
d="M147 0v102l996 1155h-969v117h1163v-67l-1026 -1190h1047v-117h-1211zM1114 1687l-440 -186l-39 78l428 213z" />
    <glyph glyph-name="zacute" unicode="&#x17a;" horiz-adv-x="1491" 
d="M147 0v102l996 1155h-969v117h1163v-67l-1026 -1190h1047v-117h-1211zM1114 1687l-440 -186l-39 78l428 213z" />
    <glyph glyph-name="Zdotaccent" unicode="&#x17b;" horiz-adv-x="1491" 
d="M147 0v102l996 1155h-969v117h1163v-67l-1026 -1190h1047v-117h-1211zM682 1521v154h155v-154h-155z" />
    <glyph glyph-name="zdotaccent" unicode="&#x17c;" horiz-adv-x="1491" 
d="M147 0v102l996 1155h-969v117h1163v-67l-1026 -1190h1047v-117h-1211zM682 1521v154h155v-154h-155z" />
    <glyph glyph-name="Zcaron" unicode="&#x17d;" horiz-adv-x="1491" 
d="M147 0v102l996 1155h-969v117h1163v-67l-1026 -1190h1047v-117h-1211zM1147 1720l-387 -219l-387 219l39 72l348 -160l348 160z" />
    <glyph glyph-name="zcaron" unicode="&#x17e;" horiz-adv-x="1491" 
d="M147 0v102l996 1155h-969v117h1163v-67l-1026 -1190h1047v-117h-1211zM1147 1720l-387 -219l-387 219l39 72l348 -160l348 160z" />
    <glyph glyph-name="zero" unicode="0" horiz-adv-x="1706" 
d="M1581 686q0 -115 -28.5 -212.5t-78.5 -176.5t-119 -139.5t-149.5 -101.5t-170 -62t-181.5 -21t-181.5 21t-170.5 62t-150 101.5t-119.5 139.5t-79 176.5t-28.5 212.5t28.5 212.5t79 176.5t119.5 139.5t150 101.5t170.5 62t181.5 21t181.5 -21t170 -62t149.5 -101.5
t119 -139.5t78.5 -176.5t28.5 -212.5zM1456 686q0 102 -24.5 187t-67 152t-100.5 117t-124.5 82.5t-139.5 49t-146 16.5q-110 0 -218 -36.5t-194 -111.5t-139 -188.5t-53 -267.5t53 -267.5t139 -188.5t194 -111.5t218 -36.5q73 0 146 16.5t140 49.5t125 83t100.5 117.5
t66.5 151.5t24 186z" />
    <glyph glyph-name="one" unicode="1" horiz-adv-x="696" 
d="M328 0v1264l-328 -103v111l328 102h123v-1374h-123z" />
    <glyph glyph-name="two" unicode="2" horiz-adv-x="1491" 
d="M82 0v84l469.5 266.5t358.5 228t227 203t75 191.5q-3 71 -39.5 129.5t-105.5 100t-170 64.5t-233 23q-82 0 -156.5 -9t-144 -27.5t-135.5 -46.5t-130 -66v137q69 28 134 50.5t132 38.5t139 24t154 8q147 0 272 -29t216 -84.5t142.5 -136.5t51.5 -186q0 -95 -65 -190
t-189.5 -197t-306.5 -215l-416 -246h1006v-115h-1286z" />
    <glyph glyph-name="three" unicode="3" horiz-adv-x="1487" 
d="M879 733q118 -15 205.5 -47t145 -76t85.5 -99.5t28 -117.5q0 -108 -54.5 -187.5t-148 -131t-219 -76.5t-266.5 -25q-101 0 -182 7.5t-149 21.5t-127 33.5t-115 42.5v145q125 -74 258 -107.5t285 -33.5q153 0 264.5 22.5t184 63t108 97.5t35.5 126q0 149 -180.5 217
t-553.5 70v108q340 0 512 59.5t172 190.5q0 122 -137.5 189t-404.5 67q-78 0 -145.5 -8t-129.5 -24t-121 -39t-120 -54v144q67 22 131 38.5t129 27.5t133 16.5t143 5.5q84 0 164.5 -8t152.5 -25.5t132.5 -45t104.5 -67t68.5 -91.5t24.5 -118q0 -53 -25.5 -103t-77 -92
t-129 -72.5t-181.5 -43.5z" />
    <glyph glyph-name="four" unicode="4" horiz-adv-x="1575" 
d="M1161 352v-352h-123v352h-977v111l889 911h211v-907h352v-115h-352zM1038 1300l-813 -833h813v833z" />
    <glyph glyph-name="five" unicode="5" horiz-adv-x="1513" 
d="M1274 1260h-975v-461l70.5 11t85 10.5t103 7.5t124.5 3q350 0 529.5 -112t179.5 -318q0 -103 -49 -182.5t-142 -134t-228.5 -83t-307.5 -28.5q-80 0 -156.5 8t-145.5 21.5t-130 31t-109 36.5v139q43 -23 99 -46t124.5 -41t148 -29t169.5 -11q142 0 254 21t189.5 62
t118 100t40.5 136q0 88 -45.5 149t-127 99.5t-195.5 56t-251 17.5q-71 0 -131.5 -5t-113 -13.5t-98 -19.5t-87.5 -23h-39v712h1096v-114z" />
    <glyph glyph-name="six" unicode="6" horiz-adv-x="1583" 
d="M922 1290q-131 0 -231 -23t-173 -64.5t-122 -99t-78.5 -127t-42.5 -148t-13 -162.5l98 64.5t133 69t170.5 55t210.5 22.5q133 0 247.5 -28t198.5 -84t131.5 -140.5t47.5 -198.5q0 -94 -43 -176.5t-125.5 -144t-203 -97t-275.5 -35.5t-287 41.5t-228 125t-150 209.5
t-54 296q0 167 47.5 305.5t145.5 238.5t248 155t354 55q55 0 112 -6t112 -15.5t107.5 -22.5t98.5 -28v-133q-33 15 -77.5 31.5t-99.5 31t-120 24t-139 9.5zM836 768q-105 0 -192 -25.5t-157.5 -62.5t-125 -77.5l-93.5 -70.5q12 -84 45.5 -164.5t100 -144t172 -102.5
t260.5 -39q129 0 227.5 24.5t165.5 69.5t101 108.5t34 141.5q0 79 -31.5 142.5t-97.5 107.5t-167.5 68t-241.5 24z" />
    <glyph glyph-name="seven" unicode="7" horiz-adv-x="1372" 
d="M487 0h-147l799 1260h-1139v114h1311v-69z" />
    <glyph glyph-name="eight" unicode="8" horiz-adv-x="1626" 
d="M1047 752q117 -35 204.5 -74t146.5 -86t88.5 -103.5t29.5 -126.5q0 -91 -52 -163t-145 -122.5t-222.5 -77t-283.5 -26.5t-283 24t-222 71.5t-145 117t-52 160.5q0 70 30 129q45 88 154.5 153t286.5 117q-68 23 -128 48t-108 57q-48 31 -80 72q-23 29 -36 64.5t-13 78.5
q0 78 43 139.5t121 105t188 66.5t244 23q221 0 361.5 -54t197.5 -145q19 -31 29 -64.5t10 -70.5q0 -100 -92.5 -174t-271.5 -139zM1288 1063q0 45 -24.5 86t-80 73t-145 51t-219.5 19t-221.5 -19t-149.5 -51t-84 -73t-24 -86q2 -91 122 -158.5t359 -107.5q111 22 198 49.5
t147 60.5t91 72t31 84zM811 696q-125 -21 -230.5 -53t-181.5 -75t-118.5 -96t-42.5 -114q0 -56 37 -106.5t110 -88.5t180 -60.5t248 -22.5t248.5 22t180 60t110 88.5t37.5 107.5q0 61 -43.5 114t-120.5 96t-183 75t-231 53z" />
    <glyph glyph-name="nine" unicode="9" horiz-adv-x="1591" 
d="M670 82q131 0 230.5 23t172.5 65t122 101t78.5 130t42 152.5t13.5 169.5q-44 -38 -100 -78t-130 -73t-168 -54.5t-214 -21.5q-133 0 -247.5 27.5t-198.5 83.5t-131.5 140.5t-47.5 198.5q0 94 43 176.5t125.5 144t203 97t275.5 35.5t287 -41.5t228 -125t150 -209.5
t54 -296q0 -167 -47.5 -305.5t-145.5 -238t-247.5 -155t-353.5 -55.5q-62 0 -122.5 6.5t-118.5 17t-111 24t-99 28.5v133q33 -15 77.5 -32.5t101.5 -32.5t126.5 -25t151.5 -10zM756 604q104 0 190.5 24t156 60.5t123.5 80t93 81.5q-7 52 -23.5 105t-46 102t-73 91.5t-105 74
t-142.5 49.5t-184 18q-129 0 -227.5 -24.5t-165.5 -69.5t-101 -108.5t-34 -141.5q0 -79 31.5 -142.5t97.5 -107.5t167.5 -68t242.5 -24z" />
    <glyph glyph-name="dollar" unicode="$" horiz-adv-x="1571" 
d="M1296 1155q-35 17 -80 36t-102.5 35.5t-128 28t-156.5 13.5v-518q107 -27 210.5 -58.5t185.5 -76.5t132 -106.5t50 -148.5q0 -67 -23.5 -119.5t-64 -91.5t-96 -66t-119.5 -44.5t-134.5 -26.5t-140.5 -12v-109h-100v109q-83 1 -157.5 7.5t-142.5 18.5t-132 28.5t-125 37.5
v150q126 -76 264.5 -106.5t292.5 -31.5v558q-106 25 -207.5 54t-181 71t-128 101.5t-48.5 145.5q0 96 50 160.5t130.5 103.5t181.5 56.5t203 19.5v109h100v-111q66 -2 126.5 -9t117.5 -17.5t112 -24.5l111 -29v-137zM1282 354q0 60 -37 103.5t-99.5 76t-144.5 57t-172 46.5
v-533q100 4 183.5 20t143.5 46t93 75.5t33 108.5zM289 1038q0 -54 35.5 -93.5t96 -70t140.5 -54.5t168 -46v494q-105 -2 -187 -17.5t-138 -44t-85.5 -70.5t-29.5 -98z" />
    <glyph glyph-name="cent" unicode="&#xa2;" horiz-adv-x="1509" 
d="M1407 201q-62 -26 -121 -47.5t-122 -37.5t-132.5 -24.5t-150.5 -9.5v-191h-107v193q-144 10 -267 53.5t-213 120.5t-141 187t-51 253t51 253.5t141 187.5t213 121t267 53v170h107v-166q81 -2 150.5 -10.5t132.5 -24t122 -37t121 -47.5v-139q-50 31 -106.5 58.5t-121.5 48
t-139 32.5t-159 12v-1020q85 0 160.5 12t141.5 33t122 48t102 57v-139zM236 698q0 -109 33 -197t99.5 -152.5t167.5 -104t238 -49.5v1011q-137 -11 -238 -51t-167.5 -105t-99.5 -154t-33 -198z" />
    <glyph glyph-name="sterling" unicode="&#xa3;" horiz-adv-x="1624" 
d="M1501 4q-14 -2 -40.5 -7.5t-67 -11t-94.5 -10t-123 -4.5q-95 0 -178 12t-161 27t-156 27t-163 12q-74 0 -126.5 -9t-96 -21l-84 -23.5t-88.5 -15.5v114q48 7 100.5 25.5t95.5 54t71 91.5t28 138v218h-293v108h293v125q0 130 33.5 231.5t104.5 171.5t180.5 106t262.5 36
q61 0 114.5 -4.5t103.5 -12t99 -18.5l103 -23v-147l-77 33t-85.5 31t-102.5 23t-128 9q-131 0 -223 -22.5t-150 -78t-84 -148.5t-26 -234v-78h659v-108h-659v-218q0 -83 -26 -150.5t-64 -105.5q7 3 20.5 5.5t28.5 3.5t29.5 1.5t25.5 0.5q78 0 156.5 -12t156 -27t151.5 -27
t142 -12q72 0 128.5 8.5t99 20t70 24t40.5 21.5v-150z" />
    <glyph glyph-name="yen" unicode="&#xa5;" horiz-adv-x="1661" 
d="M184 788h416l-477 586h149l559 -688l558 688h149l-477 -586h416v-108h-504l-80 -98v-80h584v-109h-584v-393h-125v393h-584v109h584v80l-80 98h-504v108z" />
    <glyph glyph-name="florin" unicode="&#x192;" horiz-adv-x="1712" 
d="M879 893l45 156q21 74 48 138t75.5 111t126 74t200.5 27q72 0 141.5 -11.5t135.5 -29.5v-148q-23 15 -48 29t-57 25.5t-74.5 18.5t-99.5 7q-87 0 -142 -18.5t-89.5 -51.5t-54 -80t-35.5 -104l-41 -143h321v-107h-352l-125 -413q-19 -64 -39.5 -121.5t-47 -107t-62 -89
t-85 -67.5t-116 -43t-154.5 -15q-32 0 -67.5 3t-73 9t-75 15t-73.5 20v146q25 -15 55.5 -30t66 -27t77.5 -19.5t90 -7.5q97 0 158.5 21.5t101 63.5t64 104t49.5 143l125 415h-307v107h338z" />
    <glyph glyph-name="Euro" unicode="&#x20ac;" horiz-adv-x="1706" 
d="M90 893h195q31 121 96.5 215.5t160 159t213.5 98t257 33.5q90 0 163 -10t136 -27t121 -41l118 -51v-178q-48 47 -108 83.5t-128.5 62t-144 39t-153.5 13.5q-114 0 -212.5 -26t-176 -76t-132.5 -124t-83 -171h813l-35 -109h-801q-3 -24 -3.5 -48.5t-0.5 -49.5
q0 -22 1 -41.5t3 -38.5h737l-34 -108h-684q26 -102 80.5 -179.5t133 -130t178 -79.5t216.5 -27q78 0 153.5 14t144 40t128.5 63t108 84v-179q-60 -27 -121.5 -51t-126.5 -42t-137 -28t-153 -10q-141 0 -262 35t-216 101.5t-160 164.5t-93 224h-226l35 108h172q-2 19 -2 38.5
v41.5q0 25 1 49.5t3 48.5h-209z" />
    <glyph glyph-name="currency" unicode="&#xa4;" horiz-adv-x="1147" 
d="M870 903q36 -49 54 -105.5t18 -115.5t-17 -115t-55 -104l156 -156l-76 -78l-157 158q-50 -35 -106.5 -54.5t-113.5 -19.5q-58 0 -114.5 18.5t-104.5 55.5l-157 -158l-76 78l158 158q-36 48 -55 104t-19 113q0 60 18 115t56 104l-158 160l76 76l157 -158q51 37 107.5 54.5
t116.5 17.5q57 0 112 -17.5t103 -52.5l157 156l76 -76zM385 494q38 -39 87 -57.5t101 -18.5q50 0 98.5 17.5t86.5 51t61 82.5t23 113q0 54 -21.5 103t-58.5 85.5t-85.5 58t-103.5 21.5q-57 0 -105.5 -22.5t-84 -59.5t-56 -85.5t-20.5 -100.5q0 -53 19 -101.5t59 -86.5z" />
    <glyph glyph-name="percent" unicode="%" horiz-adv-x="2032" 
d="M494 0h-136l1098 1374h133zM1847 324q0 -81 -31.5 -145.5t-85.5 -110.5t-125 -70.5t-149 -24.5t-148.5 24.5t-124 70.5t-85 110.5t-31.5 145.5q0 82 31.5 147t85 110t124 69t148.5 24t149 -24t125 -69t85.5 -110t31.5 -147zM1729 324q0 53 -18 99.5t-53 81.5t-86 55
t-116 20t-115.5 -20t-85 -55t-52 -81.5t-17.5 -99.5t17.5 -99.5t52 -81t85 -55t115.5 -20.5t116 20.5t86 55t53 81t18 99.5zM883 1049q0 -81 -32 -145.5t-85.5 -110.5t-124.5 -70.5t-149 -24.5t-148.5 24.5t-124 70.5t-85.5 110.5t-32 145.5q0 82 32 147t85.5 110t124 69
t148.5 24t149 -24t124.5 -69t85.5 -110t32 -147zM764 1049q0 53 -18 99.5t-52.5 81.5t-85.5 55t-116 20q-66 0 -116.5 -20t-85 -55t-52 -81.5t-17.5 -99.5t17.5 -99.5t52 -81t85 -55t116.5 -20.5q65 0 116 20.5t85.5 55t52.5 81t18 99.5z" />
    <glyph glyph-name="perthousand" unicode="&#x2030;" horiz-adv-x="2871" 
d="M494 0h-136l1098 1374h133zM1847 324q0 -81 -31.5 -145.5t-85.5 -110.5t-125 -70.5t-149 -24.5t-148.5 24.5t-124 70.5t-85 110.5t-31.5 145.5q0 82 31.5 147t85 110t124 69t148.5 24t149 -24t125 -69t85.5 -110t31.5 -147zM1729 324q0 53 -18 99.5t-53 81.5t-86 55
t-116 20t-115.5 -20t-85 -55t-52 -81.5t-17.5 -99.5t17.5 -99.5t52 -81t85 -55t115.5 -20.5t116 20.5t86 55t53 81t18 99.5zM883 1049q0 -81 -32 -145.5t-85.5 -110.5t-124.5 -70.5t-149 -24.5t-148.5 24.5t-124 70.5t-85.5 110.5t-32 145.5q0 82 32 147t85.5 110t124 69
t148.5 24t149 -24t124.5 -69t85.5 -110t32 -147zM764 1049q0 53 -18 99.5t-52.5 81.5t-85.5 55t-116 20q-66 0 -116.5 -20t-85 -55t-52 -81.5t-17.5 -99.5t17.5 -99.5t52 -81t85 -55t116.5 -20.5q65 0 116 20.5t85.5 55t52.5 81t18 99.5zM2769 324q0 -81 -31.5 -145.5
t-85.5 -110.5t-125 -70.5t-149 -24.5t-148.5 24.5t-124 70.5t-85 110.5t-31.5 145.5q0 82 31.5 147t85 110t124 69t148.5 24t149 -24t125 -69t85.5 -110t31.5 -147zM2650 324q0 53 -18 99.5t-52.5 81.5t-85.5 55t-116 20t-115.5 -20t-85 -55t-52.5 -81.5t-18 -99.5t18 -99.5
t52.5 -81t85 -55t115.5 -20.5t116 20.5t85.5 55t52.5 81t18 99.5z" />
    <glyph glyph-name="numbersign" unicode="#" horiz-adv-x="1436" 
d="M1069 891l-88 -406h238v-92h-258l-89 -393h-100l88 393h-414l-88 -393h-100l88 393h-244v92h263l90 406h-238v92h258l86 391h101l-87 -391h414l86 391h101l-86 -391h243v-92h-264zM555 891l-90 -406h416l88 406h-414z" />
    <glyph glyph-name="onesuperior" unicode="&#xb9;" horiz-adv-x="535" 
d="M236 508v770l-216 -66v97l216 65h114v-866h-114z" />
    <glyph glyph-name="twosuperior" unicode="&#xb2;" horiz-adv-x="1047" 
d="M72 508v82l307.5 161t229.5 131.5t144 115.5t50 114q0 48 -29.5 83t-78 57.5t-112 33t-130.5 10.5q-97 0 -189 -27.5t-182 -76.5v131l95 27.5t90 21t92.5 13t101.5 4.5q98 0 182 -18t145.5 -53.5t96.5 -86.5t35 -117q0 -63 -40 -119.5t-119.5 -116t-197.5 -125.5
l-274 -147h645v-98h-862z" />
    <glyph glyph-name="threesuperior" unicode="&#xb3;" horiz-adv-x="1049" 
d="M610 973q78 -9 135.5 -29t95 -49t56 -64.5t18.5 -74.5q0 -69 -36 -118.5t-99.5 -82t-150 -48t-187.5 -15.5q-62 0 -113.5 4t-96 11.5t-84 17t-76.5 20.5v123q78 -45 168 -65.5t186 -20.5q87 0 156.5 12.5t117.5 35.5t73.5 54.5t25.5 69.5q0 46 -28.5 78.5t-85.5 53
t-143 30t-202 10.5v86q75 0 151 8t137.5 26t100.5 46t39 69q0 33 -23 58.5t-66.5 43t-105 26.5t-139.5 9q-100 0 -184.5 -16.5t-161.5 -58.5v120q46 12 89 20.5t86.5 14t89 8.5t96.5 3q84 0 162 -11.5t138.5 -37.5t97 -69t36.5 -106q0 -33 -16.5 -64.5t-50.5 -57
t-85.5 -44.5t-120.5 -26z" />
    <glyph glyph-name="onequarter" unicode="&#xbc;" horiz-adv-x="1757" 
d="M1655 176h-195v-176h-110v176h-525v92l490 461h145v-459h195v-94zM1350 635l-387 -365h387v365zM256 645v635l-215 -66v95l215 65h111v-729h-111zM299 0h-135l1096 1374h133z" />
    <glyph glyph-name="onehalf" unicode="&#xbd;" horiz-adv-x="1919" 
d="M1051 0v76l247.5 131.5t182.5 106.5t112.5 94t38.5 96q0 24 -10.5 50t-39.5 47.5t-80.5 35.5t-133.5 14q-74 0 -155.5 -24t-153.5 -64v117q77 28 156.5 44.5t160.5 16.5t150 -15t119 -44.5t78 -72.5t28 -99q0 -51 -26.5 -96t-84.5 -92.5t-150.5 -102.5t-223.5 -125h489
v-94h-704zM256 645v635l-215 -66v95l215 65h111v-729h-111zM299 0h-135l1096 1374h133z" />
    <glyph glyph-name="threequarters" unicode="&#xbe;" horiz-adv-x="2003" 
d="M770 1198q0 -28 -13.5 -54.5t-41.5 -48.5t-69.5 -38t-98.5 -23q130 -17 190 -65.5t60 -114.5q0 -58 -29.5 -100t-81.5 -69.5t-123 -40.5t-155 -13q-51 0 -93 3t-78.5 8.5t-69.5 13t-65 16.5v121q39 -21 73.5 -36t69.5 -24t74 -13.5t87 -4.5q73 0 125.5 10.5t86 29.5
t49 43.5t15.5 53.5q0 72 -90.5 104.5t-267.5 34.5v86q168 0 250.5 25.5t82.5 87.5q0 51 -61.5 82t-187.5 31q-48 0 -86.5 -5t-72 -13.5t-65 -20.5t-65.5 -27v113q37 10 72 16.5t70.5 11t73.5 6.5t81 2q68 0 132 -9.5t113.5 -31.5t79 -58t29.5 -89zM1901 176h-195v-176h-111
v176h-524v92l490 461h145v-459h195v-94zM1595 635l-387 -365h387v365zM545 0h-135l1095 1374h133z" />
    <glyph glyph-name="degree" unicode="&#xb0;" horiz-adv-x="764" 
d="M133 1124q0 52 19.5 97.5t53 79.5t79 53.5t96.5 19.5t96.5 -19.5t79.5 -53.5t54 -79.5t20 -97.5q0 -51 -20 -96t-54 -78.5t-79.5 -53t-96.5 -19.5t-96.5 19.5t-79 53t-53 78.5t-19.5 96zM231 1124q0 -32 11.5 -59t32 -47t47.5 -31.5t59 -11.5q31 0 59 11.5t48 31.5t32 47
t12 59q0 31 -12 59t-32 48.5t-48 32.5t-59 12q-32 0 -59 -12t-47.5 -32.5t-32 -48.5t-11.5 -59z" />
    <glyph glyph-name="ordfeminine" unicode="&#xaa;" horiz-adv-x="1018" 
d="M92 475v92h813v-92h-813zM797 707v84q-37 -19 -80 -37.5t-93 -33t-107 -23.5t-122 -9q-78 0 -139.5 12.5t-105 37t-66.5 60t-23 81.5q0 67 50.5 113.5t145.5 75.5t231.5 44t308.5 21v26q0 45 -25.5 74.5t-68 47t-99 25t-117.5 7.5q-66 0 -115 -6.5t-89 -17.5t-75 -26
l-73 -32v110q83 20 171 36t192 16q87 0 161 -12.5t129 -40t86 -72.5t31 -109v-452h-108zM797 1057q-176 -6 -295.5 -20.5t-192 -37t-104 -52t-31.5 -66.5q0 -60 61.5 -85.5t182.5 -25.5q62 0 119 9.5t105.5 24.5t88 33.5t66.5 36.5v183z" />
    <glyph glyph-name="ordmasculine" unicode="&#xba;" horiz-adv-x="1065" 
d="M1004 1040q0 -80 -34.5 -145t-96.5 -111t-148.5 -71t-189.5 -25q-105 0 -192.5 25t-150 71t-97 111t-34.5 145t34.5 145t97 111.5t150 71.5t192.5 25q103 0 189.5 -25t148.5 -71.5t96.5 -111.5t34.5 -145zM895 1040q0 67 -27 117.5t-75 84t-114 50.5t-144 17
q-79 0 -145.5 -17t-115 -50.5t-75.5 -84t-27 -117.5t27 -117t75.5 -83.5t115 -50.5t145.5 -17q80 0 146 17t113.5 51t74 84t26.5 116zM111 475v92h843v-92h-843z" />
    <glyph glyph-name="plus" unicode="+" horiz-adv-x="1300" 
d="M705 631v-428h-109v428h-424v108h424v428h109v-428h423v-108h-423z" />
    <glyph glyph-name="minus" unicode="&#x2212;" horiz-adv-x="1300" 
d="M172 631v108h956v-108h-956z" />
    <glyph glyph-name="equal" unicode="=" horiz-adv-x="1300" 
d="M172 821v109h956v-109h-956zM172 438v111h956v-111h-956z" />
    <glyph glyph-name="notequal" unicode="&#x2260;" horiz-adv-x="1300" 
d="M784 930h344v-109h-380l-91 -272h471v-111h-507l-101 -307h-121l101 307h-328v111h365l90 272h-455v109h492l102 307h121z" />
    <glyph glyph-name="approxequal" unicode="&#x2248;" horiz-adv-x="1300" 
d="M1145 532q-42 -42 -101.5 -71t-140.5 -29q-62 0 -126 17t-129.5 37.5t-131 37.5t-129.5 17q-35 0 -68 -10t-63 -26.5t-55.5 -36.5t-44.5 -40v119q21 21 48 40t58.5 32.5t65 21.5t67.5 8q61 0 126 -17t131 -38t131.5 -38t129.5 -17q35 0 68 10t63 26.5t55.5 36.5t45.5 41
v-121zM1145 881q-42 -42 -101.5 -71.5t-140.5 -29.5q-62 0 -126 17t-129.5 37.5t-131 37.5t-129.5 17q-35 0 -68 -10t-63 -26.5t-55.5 -36.5t-44.5 -40v119q21 21 48 40t58.5 32.5t65 21.5t67.5 8q61 0 126 -17t131 -38t131.5 -38t129.5 -17q35 0 68 10t63 26.5t55.5 36.5
t45.5 41v-120z" />
    <glyph glyph-name="multiply" unicode="&#xd7;" horiz-adv-x="1300" 
d="M725 686l346 -346l-76 -78l-346 346l-344 -342l-76 76l344 344l-346 346l76 76l346 -346l344 344l76 -78z" />
    <glyph glyph-name="divide" unicode="&#xf7;" horiz-adv-x="1300" 
d="M584 279v161h131v-161h-131zM172 631v108h956v-108h-956zM584 930v162h131v-162h-131z" />
    <glyph glyph-name="logicalnot" unicode="&#xac;" horiz-adv-x="1300" 
d="M1020 459v327h-848v109h956v-436h-108z" />
    <glyph glyph-name="plusminus" unicode="&#xb1;" horiz-adv-x="1300" 
d="M705 715v-361h-109v361h-424v108h424v381h109v-381h423v-108h-423zM172 98v109h956v-109h-956z" />
    <glyph glyph-name="less" unicode="&#x3c;" horiz-adv-x="1300" 
d="M156 637v94l974 440v-114l-829 -373l829 -371v-114z" />
    <glyph glyph-name="greater" unicode="&#x3e;" horiz-adv-x="1300" 
d="M1145 637l-975 -438v114l829 371l-829 373v114l975 -440v-94z" />
    <glyph glyph-name="lessequal" unicode="&#x2264;" horiz-adv-x="1300" 
d="M172 98v109h956v-109h-956zM156 678v94l974 399v-114l-829 -332l829 -330v-114z" />
    <glyph glyph-name="greaterequal" unicode="&#x2265;" horiz-adv-x="1300" 
d="M172 98v109h956v-109h-956zM170 281v114l829 330l-829 332v114l975 -399v-94z" />
    <glyph glyph-name="fraction" unicode="&#x2044;" horiz-adv-x="410" 
d="M-274 0h-136l1096 1374h133z" />
    <glyph glyph-name="bar" unicode="|" horiz-adv-x="532" 
d="M205 -483v2048h123v-2048h-123z" />
    <glyph glyph-name="brokenbar" unicode="&#xa6;" horiz-adv-x="532" 
d="M205 672v758h123v-758h-123zM205 -352v758h123v-758h-123z" />
    <glyph glyph-name="at" unicode="@" horiz-adv-x="2081" 
d="M1262 436q-21 -19 -49.5 -39t-66.5 -36t-86 -26.5t-108 -10.5q-69 0 -130.5 19t-107.5 56.5t-73 92.5t-27 126q0 108 40 189t105.5 136t149.5 82.5t172 27.5q73 0 128.5 -17t109.5 -45l10 47h119l-76 -454q-1 -3 -2 -12.5t-2.5 -19.5t-2.5 -19t-1 -11q0 -51 36 -74.5
t95 -23.5q64 0 119.5 28.5t96.5 78t64 115.5t23 142q0 124 -50 220t-141.5 161.5t-220.5 99.5t-286 34q-117 0 -223 -23t-196.5 -65.5t-163 -101.5t-124 -131.5t-79 -156t-27.5 -174.5q0 -132 51.5 -237.5t148 -179t234.5 -113t311 -39.5q134 0 256.5 24.5t241.5 81.5
l51 -100q-133 -66 -270.5 -91.5t-286.5 -25.5q-194 0 -353.5 46.5t-274 134.5t-177.5 214t-63 285q0 106 34 204.5t95 183t147.5 154t190.5 119t224 76.5t249 27q186 0 338.5 -44.5t261.5 -126t169 -196.5t60 -255q0 -92 -31.5 -176.5t-90 -149.5t-141 -104t-183.5 -39
q-32 0 -62 5t-57.5 17.5t-52 34t-45.5 55.5zM979 418q34 0 69 6.5t69.5 21.5t66.5 38.5t61 58.5l55 334q-50 41 -102.5 61t-118.5 20q-65 0 -125 -20.5t-106.5 -61.5t-74.5 -104t-28 -147q0 -57 17 -96.5t48 -64t74 -35.5t95 -11z" />
    <glyph glyph-name="bullet" unicode="&#x2022;" horiz-adv-x="721" 
d="M164 707q0 40 15.5 76t42 62.5t62 42t76.5 15.5t77 -15.5t62.5 -42t42 -62.5t15.5 -76q0 -41 -15.5 -77t-42 -62.5t-62.5 -42t-77 -15.5t-76.5 15.5t-62 42t-42 62.5t-15.5 77z" />
    <glyph glyph-name="asciicircum" unicode="^" horiz-adv-x="942" 
d="M748 784l-277 494l-276 -494h-134l342 590h136l342 -590h-133z" />
    <glyph glyph-name="asciitilde" unicode="~" horiz-adv-x="1300" 
d="M1145 678q-42 -42 -101.5 -71t-140.5 -29q-62 0 -126 17t-129.5 37t-131 37t-129.5 17q-35 0 -68 -10t-63 -26t-55.5 -36.5t-44.5 -40.5v119q21 22 48 40.5t58.5 32.5t65 22t67.5 8q61 0 126 -17.5t131 -38t131.5 -38t129.5 -17.5q35 0 68 10t63 26.5t55.5 37t45.5 41.5
v-121v0z" />
    <glyph glyph-name="slash" unicode="/" horiz-adv-x="1024" 
d="M233 -41h-120l678 1477h120z" />
    <glyph glyph-name="backslash" unicode="\" horiz-adv-x="1024" 
d="M113 1436h120l678 -1477h-120z" />
    <glyph glyph-name="quotesingle" unicode="'" horiz-adv-x="287" 
d="M92 969l-20 405h143l-20 -405h-103z" />
    <glyph glyph-name="quotedbl" unicode="&#x22;" horiz-adv-x="594" 
d="M92 969l-20 405h143l-20 -405h-103zM399 969l-20 405h143l-20 -405h-103z" />
    <glyph glyph-name="ampersand" unicode="&#x26;" horiz-adv-x="1898" 
d="M1686 649q-13 -118 -68.5 -234t-157.5 -210l62.5 -43l67.5 -44.5l80 -52l102 -65.5h-183q-59 35 -111.5 70l-105.5 69q-106 -74 -255.5 -120t-342.5 -46q-120 0 -231.5 22t-197 68t-136.5 117.5t-51 169.5q0 68 31.5 127t85 110t124 95.5t148.5 83.5q-91 94 -134.5 174
t-43.5 156t37 133t100.5 95t149 56.5t182.5 18.5q84 0 156.5 -17.5t126.5 -49t85 -77t31 -100.5q0 -68 -44.5 -124t-116.5 -105.5t-163 -94.5l-184 -90q106 -94 263.5 -210.5t377.5 -264.5q90 79 137.5 178.5t57.5 204.5h121zM797 78q152 0 273 33t212 90
q-218 143 -381.5 263t-277.5 226l-67 -34.5t-75 -43t-74 -51.5t-64 -61t-45 -70.5t-17 -79.5q0 -52 29.5 -101t92 -87t160 -61t234.5 -23zM492 1096q0 -62 38.5 -129t122.5 -152l171 80.5t147.5 78.5t103.5 82.5t39 90.5q0 26 -13 52.5t-44 47.5t-83 34t-130 13
q-77 0 -141.5 -11.5t-111.5 -35.5t-73 -61.5t-26 -89.5z" />
    <glyph glyph-name="parenleft" unicode="(" horiz-adv-x="862" 
d="M293 684q0 -113 26 -219t73.5 -201t114.5 -176t150 -143l-82 -86q-93 70 -169 160.5t-130 196t-83 223.5t-29 245t29 245t83 223.5t130 195.5t169 161l82 -86q-83 -62 -150 -143t-114.5 -176t-73.5 -201t-26 -219z" />
    <glyph glyph-name="parenright" unicode=")" horiz-adv-x="862" 
d="M569 684q0 113 -26 219t-73.5 201t-114.5 176t-150 143l82 86q94 -71 170 -161t129.5 -195.5t82.5 -223.5t29 -245t-29 -245t-82.5 -223.5t-129.5 -196t-170 -160.5l-82 86q83 62 150 143t114.5 176t73.5 201t26 219z" />
    <glyph glyph-name="bracketleft" unicode="[" horiz-adv-x="838" 
d="M258 -121v1610h477v-107h-352v-1396h352v-107h-477z" />
    <glyph glyph-name="bracketright" unicode="]" horiz-adv-x="838" 
d="M102 -121v107h353v1396h-353v107h478v-1610h-478z" />
    <glyph glyph-name="braceleft" unicode="{" horiz-adv-x="791" 
d="M291 354q0 75 -6 128t-26.5 87t-58 50t-100.5 16h-39v102h39q64 0 102 16.5t58 51t25.5 88t5.5 127.5v123q0 93 17 158.5t53 107.5t92.5 61t134.5 19h100v-107h-86q-46 0 -81 -4.5t-58 -24.5t-35 -61t-12 -114v-158q0 -56 -7 -110t-26.5 -99t-54.5 -78t-92 -47
q56 -15 91 -47.5t55 -77.5t27 -99t7 -110v-162q0 -73 12 -114t35 -61t58 -24.5t81 -4.5h86v-107h-100q-78 0 -134.5 19t-92.5 61t-53 107.5t-17 158.5v129z" />
    <glyph glyph-name="braceright" unicode="}" horiz-adv-x="791" 
d="M500 225q0 -93 -17 -158.5t-53 -107.5t-92.5 -61t-134.5 -19h-101v107h86q46 0 81 4.5t58.5 24.5t35.5 61t12 114v162q0 56 7 110t27 99t55 77.5t91 47.5q-57 14 -92.5 47t-55 78t-26 99t-6.5 110v158q0 73 -12 114t-35.5 61t-58.5 24.5t-81 4.5h-86v107h101
q78 0 134.5 -19t92.5 -61t53 -107.5t17 -158.5v-123q0 -74 5.5 -127.5t25 -88t57 -51t102.5 -16.5h39v-102h-39q-63 0 -100.5 -16t-57.5 -50t-26 -87t-6 -128v-129z" />
    <glyph glyph-name="asterisk" unicode="*" horiz-adv-x="1032" 
d="M854 719l-295 184l12 -325h-112l14 325l-293 -184l-57 94l309 164l-309 164l57 92l293 -182l-14 323h112l-14 -323l297 182l55 -92l-311 -164l311 -164z" />
    <glyph glyph-name="dagger" unicode="&#x2020;" horiz-adv-x="1024" 
d="M184 1006h267v368h122v-368h267v-115h-267v-914h-122v914h-267v115z" />
    <glyph glyph-name="daggerdbl" unicode="&#x2021;" horiz-adv-x="1024" 
d="M184 1006h267v368h122v-368h267v-115h-267v-316h267v-114h-267v-484h-122v484h-267v114h267v316h-267v115z" />
    <glyph glyph-name="section" unicode="&#xa7;" horiz-adv-x="1024" 
d="M901 655q0 -47 -13.5 -85t-38 -68t-58.5 -53t-74 -41q54 -38 88.5 -86t34.5 -113q0 -60 -28.5 -104.5t-77 -73.5t-114 -43.5t-139.5 -14.5q-84 0 -156.5 15.5t-144.5 40.5v141l65 -33.5t69 -30t76.5 -22t88.5 -8.5q120 0 179 35.5t59 91.5q0 42 -25.5 75t-67.5 60.5
t-95 52l-109 49t-109 51.5t-95 59.5t-67.5 72.5t-25.5 92q0 46 14 83t38.5 67t58 53.5t71.5 42.5q-52 37 -86.5 85.5t-34.5 114.5q0 59 27.5 103.5t74 74t109 44t133.5 14.5q72 0 138.5 -12t138.5 -35v-144q-57 37 -121.5 62.5t-153.5 25.5q-114 0 -168.5 -34t-54.5 -93
q0 -42 25.5 -75t67.5 -60.5t95 -52l109 -49t109 -51.5t95 -59.5t67.5 -72.5t25.5 -92zM780 627q0 35 -16.5 62.5t-45 51t-66 44t-80.5 40l-89 39.5t-90 43q-22 -9 -48 -22t-48.5 -32t-37.5 -46t-15 -64q0 -53 35 -90.5t90.5 -68.5t123.5 -60t134 -63q24 10 50.5 25t49.5 36
t38 47t15 58z" />
    <glyph glyph-name="paragraph" unicode="&#xb6;" horiz-adv-x="1200" 
d="M864 0v1303h-192v-1303h-90v592q-87 0 -169.5 22.5t-147 69.5t-103.5 121t-39 178t39 178t103.5 121.5t147 69.5t169.5 22h372v-1374h-90z" />
    <glyph glyph-name="copyright" unicode="&#xa9;" horiz-adv-x="1579" 
d="M1477 686q0 -95 -24.5 -182.5t-69.5 -164t-107.5 -139t-139.5 -107t-165 -69t-183 -24.5q-94 0 -182 24.5t-164 69t-138.5 107t-107.5 139t-69.5 164t-24.5 182.5t24.5 183t69.5 164.5t107.5 139.5t138.5 107.5t163.5 69t182.5 24.5t183 -24.5t165 -69t139.5 -107.5
t107.5 -139.5t69.5 -164.5t24.5 -183zM1083 346q-34 -18 -67 -32t-67.5 -23.5t-73 -15t-82.5 -5.5q-86 0 -160 28.5t-128.5 82t-86 130.5t-31.5 175q0 97 31.5 174.5t86 131t128.5 82t160 28.5q44 0 82.5 -5.5t73 -15.5t67.5 -24t67 -31v-119q-68 50 -133.5 79.5
t-142.5 29.5q-74 0 -131 -24t-96 -67.5t-59.5 -104t-20.5 -134.5t20.5 -134.5t59.5 -104t96 -67.5t131 -24q77 0 142.5 29.5t133.5 77.5v-117zM197 686q0 -123 46.5 -231t126.5 -188t187.5 -126.5t230.5 -46.5q124 0 232.5 46.5t189.5 126.5t127.5 188t46.5 231
q0 124 -46.5 232.5t-127.5 189.5t-189.5 127.5t-232.5 46.5q-123 0 -230.5 -46.5t-187.5 -127.5t-126.5 -189.5t-46.5 -232.5z" />
    <glyph glyph-name="registered" unicode="&#xae;" horiz-adv-x="1229" 
d="M1118 893q0 -105 -39.5 -196.5t-108 -160t-161 -108t-197.5 -39.5q-104 0 -196 39.5t-160 108t-107.5 160t-39.5 196.5t39.5 197.5t107.5 161t160 108t196 39.5q105 0 197.5 -39.5t161 -108t108 -161t39.5 -197.5zM188 893q0 -89 33 -166t90.5 -134.5t135 -90.5
t165.5 -33q89 0 167 33t135.5 90.5t90.5 134.5t33 166t-33 166.5t-90.5 135.5t-135.5 91t-167 33q-88 0 -165.5 -33t-135 -91t-90.5 -135.5t-33 -166.5zM506 846v-240h-92v582h204q107 0 164.5 -42.5t57.5 -125.5q0 -60 -28 -99t-81 -59l152 -256h-99l-135 242q-5 -1 -12 -1
q-6 -1 -14.5 -1h-18.5h-98zM743 1020q0 46 -32 75t-101 29h-104v-215h104q68 0 100.5 31.5t32.5 79.5z" />
    <glyph glyph-name="trademark" unicode="&#x2122;" horiz-adv-x="1585" 
d="M350 1296v-518h-90v518h-199v78h488v-78h-199zM1290 778v484l-248 -484h-63l-248 484v-484h-90v596h117l254 -500l252 500h116v-596h-90z" />
    <glyph glyph-name="period" unicode="." horiz-adv-x="379" 
d="M102 0v217h174v-217h-174z" />
    <glyph glyph-name="comma" unicode="," horiz-adv-x="379" 
d="M170 -203h-121l82 420h164z" />
    <glyph glyph-name="colon" unicode=":" horiz-adv-x="502" 
d="M164 0v217h174v-217h-174zM164 739v217h174v-217h-174z" />
    <glyph glyph-name="semicolon" unicode=";" horiz-adv-x="481" 
d="M164 739v217h174v-217h-174zM211 -203h-121l82 420h164z" />
    <glyph glyph-name="exclam" unicode="!" horiz-adv-x="563" 
d="M324 369h-84l-35 788v217h153v-217zM205 0v197h153v-197h-153z" />
    <glyph glyph-name="exclamdown" unicode="&#xa1;" horiz-adv-x="563" 
d="M358 217v-217h-153v217l35 789h84zM358 1374v-196h-153v196h153z" />
    <glyph glyph-name="question" unicode="?" horiz-adv-x="1165" 
d="M1022 1012q0 -71 -29 -128.5t-77 -103.5t-109.5 -82t-126 -63t-126.5 -46.5t-112 -33.5v-166h-125v250q59 13 125 30t130 40t122 52.5t102.5 67.5t70.5 84.5t26 104.5q0 70 -30.5 121t-83.5 84.5t-124.5 50t-152.5 16.5q-50 0 -102 -9.5t-102 -27t-95 -41.5t-80 -53v156
q72 34 168 59t221 25q96 0 187.5 -20.5t163.5 -66.5t115.5 -120t43.5 -180zM317 0v197h154v-197h-154z" />
    <glyph glyph-name="questiondown" unicode="&#xbf;" horiz-adv-x="1165" 
d="M143 362q0 71 29 128.5t77 103.5t109.5 82t126 63t126.5 46.5t112 33.5v166h125v-250q-59 -13 -125 -30t-130 -40t-122 -52.5t-102.5 -67.5t-70.5 -85t-26 -104q0 -70 30.5 -121t83.5 -84.5t124.5 -50t153.5 -16.5q50 0 102 9.5t101.5 26.5t94.5 41.5t80 53.5v-156
q-72 -34 -168 -59t-221 -25q-96 0 -187.5 20.5t-163.5 66.5t-115.5 119.5t-43.5 180.5zM848 1374v-196h-154v196h154z" />
    <glyph glyph-name="quoteleft" unicode="&#x2018;" horiz-adv-x="334" 
d="M61 1014l111 360h100l-67 -360h-144z" />
    <glyph glyph-name="quoteright" unicode="&#x2019;" horiz-adv-x="334" 
d="M162 1014h-101l68 360h143z" />
    <glyph glyph-name="quotedblleft" unicode="&#x201c;" horiz-adv-x="621" 
d="M61 1014l111 360h100l-67 -360h-144zM348 1014l111 360h100l-67 -360h-144z" />
    <glyph glyph-name="quotedblright" unicode="&#x201d;" horiz-adv-x="621" 
d="M559 1374l-110 -360h-101l68 360h143zM272 1374l-110 -360h-101l68 360h143z" />
    <glyph glyph-name="quotesinglbase" unicode="&#x201a;" horiz-adv-x="334" 
d="M162 -184h-101l68 360h143z" />
    <glyph glyph-name="quotedblbase" unicode="&#x201e;" horiz-adv-x="621" 
d="M559 176l-110 -360h-101l68 360h143zM272 176l-110 -360h-101l68 360h143z" />
    <glyph glyph-name="guilsinglleft" unicode="&#x2039;" horiz-adv-x="528" 
d="M82 641v90l285 336l86 -74l-256 -307l256 -307l-86 -74z" />
    <glyph glyph-name="guilsinglright" unicode="&#x203a;" horiz-adv-x="528" 
d="M168 305l-86 74l256 307l-256 307l86 74l285 -336v-90z" />
    <glyph glyph-name="guillemotleft" unicode="&#xab;" horiz-adv-x="903" 
d="M82 641v90l285 336l86 -74l-256 -307l256 -307l-86 -74zM451 641v90l284 336l86 -74l-256 -307l256 -307l-86 -74z" />
    <glyph glyph-name="guillemotright" unicode="&#xbb;" horiz-adv-x="903" 
d="M537 305l-86 74l256 307l-256 307l86 74l284 -336v-90zM168 305l-86 74l256 307l-256 307l86 74l285 -336v-90z" />
    <glyph glyph-name="periodcentered" unicode="&#xb7;" horiz-adv-x="379" 
d="M102 582v217h174v-217h-174z" />
    <glyph glyph-name="ellipsis" unicode="&#x2026;" horiz-adv-x="1137" 
d="M102 0v217h174v-217h-174zM481 0v217h174v-217h-174zM860 0v217h174v-217h-174z" />
    <glyph glyph-name="hyphen" unicode="-" horiz-adv-x="1106" 
d="M164 625v123h778v-123h-778z" />
    <glyph glyph-name="uni00AD" unicode="&#xad;" horiz-adv-x="1106" 
d="M164 625v123h778v-123h-778z" />
    <glyph glyph-name="endash" unicode="&#x2013;" horiz-adv-x="860" 
d="M41 631v110h778v-110h-778z" />
    <glyph glyph-name="emdash" unicode="&#x2014;" horiz-adv-x="2048" 
d="M0 631v110h2048v-110h-2048z" />
    <glyph glyph-name="underscore" unicode="_" horiz-adv-x="1024" 
d="M0 -250v115h1024v-115h-1024z" />
    <glyph glyph-name="grave" unicode="`" horiz-adv-x="1081" 
d="M238 1430l430 -213l-41 -78l-441 186z" />
    <glyph glyph-name="acute" unicode="&#xb4;" horiz-adv-x="1081" 
d="M895 1325l-440 -186l-39 78l428 213z" />
    <glyph glyph-name="dieresis" unicode="&#xa8;" horiz-adv-x="1081" 
d="M266 1159v148h148v-148h-148zM668 1159v148h147v-148h-147z" />
    <glyph glyph-name="macron" unicode="&#xaf;" horiz-adv-x="1081" 
d="M266 1169v113h549v-113h-549z" />
    <glyph glyph-name="cedilla" unicode="&#xb8;" horiz-adv-x="1081" 
d="M561 -98q44 0 82.5 -7t67 -23.5t45 -44t16.5 -69.5q0 -45 -18.5 -75.5t-51.5 -49t-79 -26.5t-101 -8q-57 0 -111 8.5t-98 17.5v101q45 -16 97.5 -26.5t103.5 -10.5q42 0 71 5t46.5 14t25 22t7.5 28q0 19 -10 32t-27 20.5t-38.5 10.5t-45.5 3q-26 0 -53 -1.5t-50 -4.5
l76 202h90z" />
    <glyph glyph-name="circumflex" unicode="&#x2c6;" horiz-adv-x="1081" 
d="M889 1139l-348 159l-348 -159l-39 71l387 220l387 -220z" />
    <glyph glyph-name="caron" unicode="&#x2c7;" horiz-adv-x="1081" 
d="M928 1358l-387 -219l-387 219l39 72l348 -160l348 160z" />
    <glyph glyph-name="breve" unicode="&#x2d8;" horiz-adv-x="1081" 
d="M887 1389q-9 -37 -31 -79t-62 -77t-101.5 -58.5t-151.5 -23.5t-152 23.5t-102 58.5t-61.5 77t-30.5 79h116q6 -18 20.5 -41.5t41 -44.5t67.5 -35.5t101 -14.5q59 0 100 14.5t68 35.5t42 44.5t21 41.5h115v0z" />
    <glyph glyph-name="dotaccent" unicode="&#x2d9;" horiz-adv-x="1081" 
d="M463 1159v154h155v-154h-155z" />
    <glyph glyph-name="ring" unicode="&#x2da;" horiz-adv-x="1081" 
d="M279 1303q0 43 18.5 78t53 59.5t83 37.5t107.5 13q58 0 106.5 -13t83 -37.5t53.5 -59.5t19 -78q0 -44 -19 -79t-53.5 -59.5t-83 -37.5t-106.5 -13q-59 0 -107.5 13t-83 37.5t-53 59.5t-18.5 79zM381 1303q0 -41 37.5 -69t122.5 -28q84 0 120.5 28t36.5 69q0 40 -36.5 68
t-120.5 28q-85 0 -122.5 -28t-37.5 -68z" />
    <glyph glyph-name="ogonek" unicode="&#x2db;" horiz-adv-x="1081" 
d="M616 20q-32 -20 -65.5 -44t-60.5 -50.5t-44.5 -53.5t-17.5 -54q0 -42 37 -61t106 -19q50 0 94.5 7.5t86.5 18.5v-102l-86.5 -12t-110.5 -6q-55 0 -100 8.5t-76.5 27t-48.5 47t-17 68.5q0 65 48 119.5t147 105.5h108z" />
    <glyph glyph-name="tilde" unicode="&#x2dc;" horiz-adv-x="1081" 
d="M893 1368q0 -26 -7.5 -64t-28.5 -73t-57.5 -59.5t-94.5 -24.5q-47 0 -92.5 19t-88 41.5l-81 41.5t-70.5 19q-30 0 -47.5 -15t-26.5 -35.5t-12 -40.5t-4 -30h-95q0 25 8 62.5t29 73t58 60.5t96 25q39 0 82 -19t86.5 -41.5t84.5 -41.5t77 -19q30 0 47.5 15t26.5 35t12 40
t4 31h94v0z" />
    <glyph glyph-name="hungarumlaut" unicode="&#x2dd;" horiz-adv-x="1081" 
d="M608 1325l-297 -186l-53 71l285 213zM963 1325l-297 -186l-54 71l285 213z" />
    <glyph glyph-name="space" unicode=" " horiz-adv-x="770" 
 />
    <glyph glyph-name="nonbreakingspace" unicode="&#xa0;" horiz-adv-x="770" 
 />
    <glyph glyph-name="micro" unicode="&#xb5;" horiz-adv-x="1444" 
d="M457 958l-123 -636q13 -53 35 -97t53.5 -75.5t73.5 -48.5t96 -17q75 0 137 24.5t113.5 64.5t94 89.5t77.5 99.5l114 596h125l-114 -596q-8 -42 -11.5 -75t-3.5 -62q0 -34 3.5 -62.5t9.5 -54.5t14 -52.5l16 -55.5h-125q-14 45 -26 97.5t-12 129.5l-82 -88.5t-95.5 -80.5
t-115 -58.5t-140.5 -22.5q-92 0 -162 54t-104 145l-112 -586h-125l264 1368h125z" />
    <glyph glyph-name="mu" unicode="&#x3bc;" horiz-adv-x="1444" 
d="M457 958l-123 -636q13 -53 35 -97t53.5 -75.5t73.5 -48.5t96 -17q75 0 137 24.5t113.5 64.5t94 89.5t77.5 99.5l114 596h125l-114 -596q-8 -42 -11.5 -75t-3.5 -62q0 -34 3.5 -62.5t9.5 -54.5t14 -52.5l16 -55.5h-125q-14 45 -26 97.5t-12 129.5l-82 -88.5t-95.5 -80.5
t-115 -58.5t-140.5 -22.5q-92 0 -162 54t-104 145l-112 -586h-125l264 1368h125z" />
    <glyph glyph-name="partialdiff" unicode="&#x2202;" horiz-adv-x="1618" 
d="M848 1290q-57 0 -112 -10t-105.5 -24.5t-94.5 -31.5t-79 -32l18 137q48 15 93 27.5t90.5 22t94 15t103.5 5.5q163 0 283.5 -43t199.5 -121t117.5 -188t38.5 -244q0 -204 -60 -359.5t-167 -260t-253.5 -157.5t-320.5 -53q-137 0 -243 32t-179 88.5t-111 133t-38 166.5
q0 118 55 208t146.5 151.5t211 93t248.5 31.5q109 0 198.5 -22t161 -54t124.5 -68.5t90 -66.5q5 35 7.5 70.5t2.5 70.5q0 101 -26.5 189t-87 153.5t-160 103t-246.5 37.5zM809 768q-140 0 -245 -28t-175.5 -77.5t-105.5 -118t-35 -149.5q0 -68 30.5 -125.5t90 -99t146 -65
t198.5 -23.5q139 0 245.5 39.5t182.5 104t124 146t72 165.5q-35 32 -86 72t-117 75.5t-147.5 59.5t-177.5 24z" />
    <glyph glyph-name="commaaccent" unicode="&#x326;" horiz-adv-x="1081" 
d="M547 -416h-101l39 273h144z" />
    <glyph glyph-name="uni2215" unicode="&#x2215;" horiz-adv-x="410" 
d="M-274 0h-136l1096 1374h133z" />
    </font>
</defs>
</svg>
