<?xml version="1.0" standalone="no"?>
<!DOCTYPE svg PUBLIC "-//W3C//DTD SVG 1.1//EN" "http://www.w3.org/Graphics/SVG/1.1/DTD/svg11.dtd" >
<svg>
<metadata>
Created by FontForge 20090914 at Fri Apr 22 00:29:23 2011
 By apache
Copyright 2010 Canonical Ltd.  Licensed under the Ubuntu Font Licence 1.0
</metadata>
<defs>
<font id="Ubuntu" horiz-adv-x="574" >
  <font-face 
    font-family="Ubuntu"
    font-weight="400"
    font-stretch="normal"
    units-per-em="1000"
    panose-1="2 11 5 4 3 6 2 3 2 4"
    ascent="800"
    descent="-200"
    x-height="520"
    cap-height="693"
    bbox="-167 -189 1561 962"
    underline-thickness="79"
    underline-position="-84"
    unicode-range="U+0008-U+FB04"
  />
<missing-glyph horiz-adv-x="500" 
d="M50 0v750h400v-750h-400zM400 50v650h-300v-650h300z" />
    <glyph glyph-name="f_f" unicode="ff" horiz-adv-x="776" 
d="M283 776q41 0 70.5 -6t41.5 -11l-17 -80q-12 6 -34 11.5t-54 5.5q-65 0 -91 -35.5t-26 -95.5v-45h200v-78h-200v-442h-93v567q0 100 49 154.5t154 54.5zM673 776q41 0 70.5 -6t41.5 -11l-17 -80q-12 6 -34 11.5t-54 5.5q-65 0 -91 -35.5t-26 -95.5v-45h200v-78h-200v-442
h-93v567q0 100 49 154.5t154 54.5z" />
    <glyph glyph-name="f_i" unicode="fi" horiz-adv-x="643" 
d="M283 776q35 0 60 -4.5t36 -8.5l-13 -80q-11 4 -30 8.5t-46 4.5q-65 0 -91 -35.5t-26 -95.5v-45h200v-78h-200v-442h-93v567q0 100 49 154.5t154 54.5zM563 0h-93v520h93v-520zM516 614q-25 0 -42.5 16.5t-17.5 44.5t17.5 44.5t42.5 16.5t42.5 -16.5t17.5 -44.5
t-17.5 -44.5t-42.5 -16.5z" />
    <glyph glyph-name="f_l" unicode="fl" horiz-adv-x="663" 
d="M283 776q35 0 60 -4.5t36 -8.5l-13 -80q-11 4 -30 8.5t-46 4.5q-65 0 -91 -35.5t-26 -95.5v-45h200v-78h-200v-442h-93v567q0 100 49 154.5t154 54.5zM626 -10q-86 2 -122 37t-36 109v624l93 16v-625q0 -23 4 -38t13 -24t24 -13.5t37 -7.5z" />
    <glyph glyph-name="f_f_i" unicode="ffi" horiz-adv-x="1033" 
d="M283 776q41 0 70.5 -6t41.5 -11l-17 -80q-12 6 -34 11.5t-54 5.5q-65 0 -91 -35.5t-26 -95.5v-45h200v-78h-200v-442h-93v567q0 100 49 154.5t154 54.5zM673 776q35 0 60 -4.5t36 -8.5l-13 -80q-11 4 -30 8.5t-46 4.5q-65 0 -91 -35.5t-26 -95.5v-45h200v-78h-200v-442
h-93v567q0 100 49 154.5t154 54.5zM953 0h-93v520h93v-520zM906 614q-25 0 -42.5 16.5t-17.5 44.5t17.5 44.5t42.5 16.5t42.5 -16.5t17.5 -44.5t-17.5 -44.5t-42.5 -16.5z" />
    <glyph glyph-name="f_f_l" unicode="ffl" horiz-adv-x="1053" 
d="M283 776q41 0 70.5 -6t41.5 -11l-17 -80q-12 6 -34 11.5t-54 5.5q-65 0 -91 -35.5t-26 -95.5v-45h200v-78h-200v-442h-93v567q0 100 49 154.5t154 54.5zM673 776q35 0 60 -4.5t36 -8.5l-13 -80q-11 4 -30 8.5t-46 4.5q-65 0 -91 -35.5t-26 -95.5v-45h200v-78h-200v-442
h-93v567q0 100 49 154.5t154 54.5zM1016 -10q-86 2 -122 37t-36 109v624l93 16v-625q0 -23 4 -38t13 -24t24 -13.5t37 -7.5z" />
    <glyph glyph-name=".notdef" horiz-adv-x="500" 
d="M50 0v750h400v-750h-400zM400 50v650h-300v-650h300z" />
    <glyph glyph-name=".null" horiz-adv-x="0" 
 />
    <glyph glyph-name=".null" horiz-adv-x="0" 
 />
    <glyph glyph-name=".null" horiz-adv-x="0" 
 />
    <glyph glyph-name="nonmarkingreturn" unicode="&#x9;" horiz-adv-x="231" 
 />
    <glyph glyph-name="nonmarkingreturn" unicode="&#xd;" horiz-adv-x="231" 
 />
    <glyph glyph-name="space" unicode=" " horiz-adv-x="231" 
 />
    <glyph glyph-name="exclam" unicode="!" horiz-adv-x="276" 
d="M188 505q0 -84 -6 -152.5t-15 -136.5h-58q-9 68 -15 136.5t-6 152.5v188h100v-188zM205 54q0 -27 -18 -47t-49 -20t-49 20t-18 47t18 47t49 20t49 -20t18 -47z" />
    <glyph glyph-name="quotedbl" unicode="&#x22;" horiz-adv-x="418" 
d="M169 760v-50q0 -49 -6 -102.5t-15 -106.5h-55q-9 53 -15 106.5t-6 103.5v49h97zM346 760v-50q0 -49 -6 -102.5t-15 -106.5h-55q-9 53 -15 106.5t-6 103.5v49h97z" />
    <glyph glyph-name="numbersign" unicode="#" horiz-adv-x="667" 
d="M284 510h162l35 183h84l-35 -183h88v-74h-103l-34 -179h137v-74h-151l-35 -183h-84l35 183h-162l-35 -183h-84l35 183h-88v74h102l34 179h-136v74h151l35 183h84zM235 257h162l35 179h-162z" />
    <glyph glyph-name="dollar" unicode="$" horiz-adv-x="564" 
d="M262 95q77 0 108 24.5t31 62.5q0 28 -13.5 48t-36 35t-52 27t-60.5 23q-30 11 -59.5 24.5t-52.5 33t-37.5 47t-14.5 67.5q0 71 42.5 116.5t123.5 57.5v115h83v-112q44 -2 82 -11t60 -17l-19 -78q-24 9 -60 18.5t-90 9.5q-60 0 -92.5 -23t-32.5 -65q0 -23 9.5 -39
t27.5 -28.5t42.5 -22.5t54.5 -21q39 -15 74 -31t61.5 -38.5t42.5 -53.5t16 -75q0 -71 -43 -114.5t-133 -54.5v-129h-83v126q-70 2 -114 15.5t-66 25.5l25 75q30 -14 72 -26t104 -12z" />
    <glyph glyph-name="percent" unicode="%" horiz-adv-x="858" 
d="M50 524q0 45 12 79t33.5 57.5t50.5 35.5t63 12t63 -12t50.5 -35.5t33.5 -57.5t12 -79t-12 -79t-33.5 -57.5t-50.5 -35.5t-63 -12t-63 12t-50.5 35.5t-33.5 57.5t-12 79zM290 524q0 54 -21 84.5t-60 30.5t-60 -30.5t-21 -84.5t21 -84.5t60 -30.5t60 30.5t21 84.5zM490 169
q0 45 12 79t33.5 57.5t50.5 35.5t63 12t63 -12t50.5 -35.5t33.5 -57.5t12 -79t-12 -79t-33.5 -57.5t-50.5 -35.5t-63 -12t-63 12t-50.5 35.5t-33.5 57.5t-12 79zM730 169q0 54 -21 84.5t-60 30.5t-60 -30.5t-21 -84.5t21 -84.5t60 -30.5t60 30.5t21 84.5zM670 693l-391 -693
h-91l391 693h91z" />
    <glyph glyph-name="ampersand" unicode="&#x26;" horiz-adv-x="666" 
d="M46 184q0 39 12 69.5t32.5 55t47.5 43t56 32.5q-74 74 -74 153q0 40 13.5 72t37 54t56 34t71.5 12q40 0 71.5 -12t53 -32t32.5 -48t11 -59q0 -35 -11.5 -63t-31 -51t-44.5 -42t-53 -34l162 -165q34 63 44 140l77 -10q-4 -41 -20.5 -89.5t-46.5 -96.5q35 -38 64.5 -75
t48.5 -72h-98q-12 20 -29.5 41l-36.5 42q-41 -41 -95 -66.5t-124 -25.5q-65 0 -108 18.5t-69.5 47t-37.5 62.5t-11 65zM139 186q0 -18 7 -39t23 -38.5t41.5 -29t63.5 -11.5q49 0 90.5 18t73.5 51l-195 197q-18 -9 -36.5 -21t-33.5 -29.5t-24.5 -41.5t-9.5 -56zM382 555
q0 34 -22.5 57.5t-61.5 23.5q-44 0 -67.5 -26.5t-23.5 -65.5q0 -65 68 -127q22 11 41.5 24t34 30t23 37.5t8.5 46.5z" />
    <glyph glyph-name="quotesingle" unicode="'" horiz-adv-x="241" 
d="M169 760v-50q0 -49 -6 -102.5t-15 -106.5h-55q-9 53 -15 106.5t-6 103.5v49h97z" />
    <glyph glyph-name="parenleft" unicode="(" horiz-adv-x="324" 
d="M171 299q0 -128 37 -237t109 -202l-66 -45q-78 95 -125.5 218.5t-47.5 265.5t47.5 265.5t125.5 218.5l66 -45q-72 -93 -109 -202t-37 -237z" />
    <glyph glyph-name="parenright" unicode=")" horiz-adv-x="324" 
d="M153 299q0 128 -37 237t-109 202l66 45q78 -95 125.5 -218.5t47.5 -265.5t-47.5 -265.5t-125.5 -218.5l-66 45q72 93 109 202t37 237z" />
    <glyph glyph-name="asterisk" unicode="*" horiz-adv-x="480" 
d="M285 685q0 -42 -7.5 -80.5l-15.5 -79.5l71 39t76 33l6 2l28 -84l-8 -3q-40 -15 -80 -19.5t-82 -7.5l62 -54.5t54 -61.5l5 -7l-73 -51l-4 6q-24 36 -41.5 71.5l-35.5 73.5l-35.5 -73.5t-41.5 -71.5l-4 -6l-73 51l5 7q25 35 54 61.5l62 54.5q-42 3 -82 7.5t-80 19.5l-8 3
l28 84l6 -2q41 -14 76 -33l71 -39l-15.5 79.5t-7.5 80.5v8h90v-8z" />
    <glyph glyph-name="plus" unicode="+" horiz-adv-x="564" 
d="M53 339h189v206h80v-206h189v-79h-189v-207h-80v207h-189v79z" />
    <glyph glyph-name="comma" unicode="," horiz-adv-x="246" 
d="M178 114q1 -8 1 -15.5v-15.5q0 -63 -18.5 -124.5t-50.5 -117.5l-72 23q25 51 33 103.5t8 98.5q0 13 -0.5 25t-1.5 23h101z" />
    <glyph glyph-name="hyphen" unicode="-" horiz-adv-x="299" 
d="M26 343h247v-87h-247v87z" />
    <glyph glyph-name="period" unicode="." horiz-adv-x="246" 
d="M190 54q0 -27 -18 -47t-49 -20t-49 20t-18 47t18 47t49 20t49 -20t18 -47z" />
    <glyph glyph-name="slash" unicode="/" horiz-adv-x="384" 
d="M71 -185h-95l339 968h93z" />
    <glyph glyph-name="zero" unicode="0" horiz-adv-x="564" 
d="M50 347q0 174 61.5 268t170.5 94t170.5 -94t61.5 -268t-61.5 -268t-170.5 -94t-170.5 94t-61.5 268zM416 347q0 57 -6.5 108t-22 89t-41.5 60.5t-64 22.5t-64 -22.5t-41.5 -60.5t-22 -89t-6.5 -108t6.5 -108t22 -89t41.5 -60.5t64 -22.5t64 22.5t41.5 60.5t22 89t6.5 108
z" />
    <glyph glyph-name="one" unicode="1" horiz-adv-x="564" 
d="M93 550q57 22 111 56.5t99 86.5h66v-693h-93v564q-12 -11 -29.5 -23t-38 -23t-43 -21t-43.5 -17z" />
    <glyph glyph-name="two" unicode="2" horiz-adv-x="564" 
d="M467 516q0 -36 -14.5 -69.5t-38.5 -66t-54 -64l-60 -61.5l-39.5 -40t-42.5 -48t-33.5 -48t-13.5 -40h319v-79h-420q-1 6 -1 12v11q0 47 15.5 87.5t40.5 76.5t56 68l61 62l47.5 47.5t40 47t28 48.5t10.5 53q0 30 -9.5 51t-25.5 35t-37.5 20.5t-45.5 6.5q-29 0 -53 -8
t-43 -18.5t-32 -22l-20 -17.5l-46 66q9 10 27 24.5t43 27.5t56 22t67 9q109 0 163.5 -50.5t54.5 -142.5z" />
    <glyph glyph-name="three" unicode="3" horiz-adv-x="564" 
d="M226 68q89 0 127.5 35t38.5 94q0 38 -16 64t-42 41.5t-60.5 22t-70.5 6.5h-24v76h33q25 0 51.5 5t48.5 18t36 35.5t14 56.5q0 28 -10 48t-26.5 33t-38 18.5t-45.5 5.5q-48 0 -81.5 -14t-56.5 -29l-36 71q12 8 30.5 17.5t41.5 17.5t49.5 13.5t55.5 5.5q55 0 95 -13.5
t66 -38t39 -58t13 -72.5q0 -54 -31 -92.5t-75 -58.5q27 -8 52 -23t43.5 -38t30 -53t11.5 -67q0 -45 -15.5 -83.5t-48 -66.5t-81.5 -44t-116 -16q-26 0 -53.5 4t-51.5 10t-42 12t-26 10l18 81q17 -8 56.5 -21t96.5 -13z" />
    <glyph glyph-name="four" unicode="4" horiz-adv-x="564" 
d="M40 240q19 44 52 102.5t74.5 120.5t89 122t95.5 108h89v-440h82v-76h-82v-177h-90v177h-310v63zM350 583q-30 -32 -60.5 -71.5t-59.5 -82.5t-54.5 -88t-45.5 -88h220v330z" />
    <glyph glyph-name="five" unicode="5" horiz-adv-x="564" 
d="M199 426q151 -6 221.5 -66t70.5 -163q0 -46 -15.5 -85t-47 -67t-79.5 -44t-114 -16q-26 0 -53 4t-50 10t-41 12t-26 10l18 81q17 -8 55.5 -21t94.5 -13q45 0 75.5 10t49.5 27t27.5 39.5t8.5 47.5q0 38 -13 67.5t-46 49.5t-88 30.5t-139 10.5q6 49 9.5 92t6.5 84t5 81.5
t4 85.5h334v-79h-253q-1 -15 -3 -40.5l-4 -53l-4 -53.5t-4 -41z" />
    <glyph glyph-name="six" unicode="6" horiz-adv-x="564" 
d="M63 278q0 101 28 178.5t79.5 130.5t125 80.5t165.5 28.5l7 -78q-59 -1 -107.5 -13t-86.5 -38t-64 -67.5t-39 -102.5q26 12 58.5 20t67.5 8q59 0 100 -18t67 -47.5t37.5 -68t11.5 -80.5q0 -38 -13 -78t-39.5 -73t-67.5 -54t-97 -21q-114 0 -173.5 78t-59.5 215zM287 349
q-35 0 -65 -6.5t-60 -19.5q-1 -11 -1.5 -22.5t-0.5 -22.5q0 -44 6 -83t21.5 -68.5t41.5 -47t66 -17.5q33 0 56 14t38 36t21.5 47.5t6.5 49.5q0 68 -32.5 104t-97.5 36z" />
    <glyph glyph-name="seven" unicode="7" horiz-adv-x="564" 
d="M163 0q6 80 28.5 168.5t55.5 172t72.5 155t77.5 116.5h-337v81h441v-77q-33 -38 -73 -104.5t-75.5 -149t-61 -176t-31.5 -186.5h-97z" />
    <glyph glyph-name="eight" unicode="8" horiz-adv-x="564" 
d="M509 180q0 -42 -14.5 -77.5t-43 -62t-71.5 -41t-99 -14.5q-65 0 -108.5 18.5t-69.5 46.5t-37 61.5t-11 63.5q0 29 9.5 55.5t25 49.5t36 41.5t43.5 32.5q-98 56 -98 165q0 38 15 72.5t42.5 60.5t66.5 41.5t87 15.5q56 0 96 -17t65.5 -43.5t37 -58.5t11.5 -62
q0 -29 -8.5 -54.5t-23 -47.5t-33 -39t-38.5 -30q118 -56 120 -177zM149 174q0 -18 6.5 -37.5t22.5 -36t41 -27.5t63 -11q34 0 59.5 10t41.5 25.5t24 35.5t8 41q0 32 -12 56t-34.5 42t-54 30.5t-71.5 21.5q-45 -25 -69.5 -62t-24.5 -88zM399 529q0 15 -6.5 33t-20.5 33.5
t-36 26t-54 10.5t-54.5 -10t-36.5 -25.5t-20.5 -34t-6.5 -36.5q0 -22 8 -44t25 -41t44.5 -34t65.5 -24q42 25 67 58.5t25 87.5z" />
    <glyph glyph-name="nine" unicode="9" horiz-adv-x="564" 
d="M501 416q0 -206 -102.5 -311.5t-304.5 -106.5l-3 78q63 0 113.5 12t88.5 38.5t63.5 68.5t37.5 103q-26 -12 -59 -19.5t-68 -7.5q-59 0 -100 17.5t-67 47t-37.5 68t-11.5 80.5q0 37 13 77t39.5 73t67.5 54t97 21q57 0 100.5 -20t73 -58t44.5 -92.5t15 -122.5zM277 347
q35 0 66 6.5t60 19.5q1 11 1 21.5v21.5q0 43 -6 82.5t-21.5 69t-41.5 47t-66 17.5q-33 0 -56 -14t-38 -35.5t-21.5 -47t-6.5 -49.5q0 -68 32.5 -103.5t97.5 -35.5z" />
    <glyph glyph-name="colon" unicode=":" horiz-adv-x="246" 
d="M190 54q0 -27 -18 -47t-49 -20t-49 20t-18 47t18 47t49 20t49 -20t18 -47zM190 453q0 -27 -18 -47t-49 -20t-49 20t-18 47t18 47t49 20t49 -20t18 -47z" />
    <glyph glyph-name="semicolon" unicode=";" horiz-adv-x="246" 
d="M178 114q1 -8 1 -15.5v-15.5q0 -63 -18.5 -124.5t-50.5 -117.5l-72 23q25 51 33 103.5t8 98.5q0 13 -0.5 25t-1.5 23h101zM190 453q0 -27 -18 -47t-49 -20t-49 20t-18 47t18 47t49 20t49 -20t18 -47z" />
    <glyph glyph-name="less" unicode="&#x3c;" horiz-adv-x="564" 
d="M156 299l355 -146l-26 -77l-432 183v80l432 183l26 -77z" />
    <glyph glyph-name="equal" unicode="=" horiz-adv-x="564" 
d="M53 232h458v-79h-458v79zM53 445h458v-79h-458v79z" />
    <glyph glyph-name="greater" unicode="&#x3e;" horiz-adv-x="564" 
d="M53 445l26 77l432 -183v-80l-432 -183l-26 77l355 146z" />
    <glyph glyph-name="question" unicode="?" horiz-adv-x="404" 
d="M174 631q-66 0 -129 -34l-26 72q34 18 76.5 29t90.5 11q57 0 93.5 -15.5t58.5 -39.5t30.5 -53.5t8.5 -56.5q0 -34 -13 -60.5t-32 -49.5t-42 -44t-42 -43.5t-32 -49t-13 -59.5v-11t1 -11h-78q-4 20 -4 42q0 32 11.5 58t29.5 48.5t38 42t38 39.5t29.5 42t11.5 48
q0 42 -27 68.5t-79 26.5zM237 54q0 -27 -18 -47t-49 -20t-49 20t-18 47t18 47t49 20t49 -20t18 -47z" />
    <glyph glyph-name="at" unicode="@" horiz-adv-x="950" 
d="M690 43q-32 0 -53 9t-35 24q-22 -12 -53 -20.5t-62 -8.5q-48 0 -87.5 15t-68.5 44.5t-45 72.5t-16 100q0 48 15 90.5t44.5 74t72 49.5t96.5 18q51 0 93.5 -8t65.5 -16v-306q0 -32 11 -45t29 -13q26 0 45.5 18t32 47t18.5 65.5t6 74.5q0 63 -22 118.5t-63 97.5t-99.5 66
t-131.5 24t-134 -24.5t-105 -70t-68.5 -111.5t-24.5 -150q0 -88 26 -154.5t72.5 -111t110 -67t139.5 -22.5q59 0 97.5 7t49.5 11l10 -74q-17 -6 -61.5 -13t-95.5 -7q-89 0 -168 25.5t-138 78t-93.5 134t-34.5 193.5q0 108 34 189t91.5 134.5t133 80.5t159.5 27
q82 0 155 -26.5t128 -77t87 -122t32 -161.5q0 -68 -15.5 -120t-41.5 -87.5t-62 -53.5t-76 -18zM490 124q21 0 42.5 4.5t38.5 13.5q-3 13 -4 26t-1 25v235q-6 2 -23 4t-38 2q-71 0 -106 -44t-35 -111q0 -71 34 -113t92 -42z" />
    <glyph glyph-name="A" unicode="A" horiz-adv-x="663" 
d="M549 0l-32 88.5l-31 88.5h-314l-63 -177h-101l75 203.5l68.5 177.5l66.5 160.5t69 151.5h89q36 -75 69 -151.5l66.5 -160.5l68.5 -177.5l75 -203.5h-106zM458 257l-63.5 168.5t-65.5 156.5q-35 -75 -66.5 -156.5l-62.5 -168.5h258z" />
    <glyph glyph-name="B" unicode="B" horiz-adv-x="643" 
d="M273 -6q-21 0 -45.5 1t-49 3t-48.5 5t-44 8v672q20 5 44 8t48.5 5t48.5 3t45 1q60 0 112.5 -9t91 -30.5t60.5 -56.5t22 -86q0 -57 -27 -93.5t-72 -54.5q61 -18 97 -57t36 -110q0 -104 -76.5 -156.5t-242.5 -52.5zM182 323v-244q11 -1 26 -2q13 -1 30.5 -1.5t40.5 -0.5
q43 0 81.5 5.5t67.5 19.5t46.5 39t17.5 63q0 34 -13 57.5t-37.5 37.5t-58.5 20t-76 6h-125zM182 401h102q36 0 68 5t55.5 18t37 34t13.5 53q0 30 -14 50.5t-38.5 33t-57.5 18.5t-70 6t-58 -1t-38 -3v-214z" />
    <glyph glyph-name="C" unicode="C" horiz-adv-x="620" 
d="M384 -15q-73 0 -133 24t-103 70t-66.5 113.5t-23.5 154.5t26.5 154.5t71.5 113.5t105 70t128 24q43 0 77.5 -6t60 -14t41.5 -16t22 -12l-28 -80q-9 6 -26 13t-38.5 14t-47 11.5t-51.5 4.5q-55 0 -99 -19t-75 -55t-47.5 -87.5t-16.5 -115.5q0 -62 14.5 -113t43.5 -87.5
t72.5 -56.5t101.5 -20q67 0 111 14t66 25l25 -80q-7 -5 -25 -12.5t-45 -14.5t-63 -12t-78 -5z" />
    <glyph glyph-name="D" unicode="D" horiz-adv-x="713" 
d="M655 347q0 -90 -28 -156.5t-79 -110t-122 -65t-156 -21.5q-42 0 -92.5 3.5t-91.5 13.5v672q41 10 91.5 13.5t92.5 3.5q85 0 156 -21.5t122 -65t79 -110t28 -156.5zM278 79q138 0 206 70.5t68 197.5t-68 197.5t-206 70.5q-41 0 -63.5 -1t-31.5 -2v-530q9 -1 31.5 -2
t63.5 -1z" />
    <glyph glyph-name="E" unicode="E" horiz-adv-x="571" 
d="M86 0v693h423v-83h-326v-206h290v-81h-290v-240h351v-83h-448z" />
    <glyph glyph-name="F" unicode="F" horiz-adv-x="537" 
d="M86 0v693h418v-83h-321v-209h285v-82h-285v-319h-97z" />
    <glyph glyph-name="G" unicode="G" horiz-adv-x="672" 
d="M509 341h97v-324q-12 -4 -34.5 -9t-52 -10t-64.5 -8.5t-71 -3.5q-73 0 -133 24t-103 70t-66.5 113t-23.5 154t26.5 154.5t71.5 113.5t105.5 70t129.5 24q47 0 83.5 -6t62.5 -14t42.5 -16t22.5 -12l-31 -81q-29 19 -77 31.5t-98 12.5q-53 0 -96.5 -19t-74 -55t-47.5 -87.5
t-17 -115.5q0 -62 14.5 -113t44 -87.5t73 -56.5t102.5 -20q42 0 71.5 4.5t42.5 8.5v258z" />
    <glyph glyph-name="H" unicode="H" horiz-adv-x="705" 
d="M522 693h97v-693h-97v320h-339v-320h-97v693h97v-289h339v289z" />
    <glyph glyph-name="I" unicode="I" horiz-adv-x="269" 
d="M86 693h97v-693h-97v693z" />
    <glyph glyph-name="J" unicode="J" horiz-adv-x="500" 
d="M419 223q0 -50 -10.5 -93t-37 -75.5t-71 -51t-111.5 -18.5q-34 0 -62.5 5.5t-51.5 14t-40 18t-27 18.5l38 77q21 -15 54.5 -31.5t83.5 -16.5q72 0 105 36.5t33 125.5v461h97v-470z" />
    <glyph glyph-name="K" unicode="K" horiz-adv-x="629" 
d="M599 693l-70 -75.5l-81.5 -85l-84.5 -85.5l-79 -78q43 -30 91 -74t94 -94t86.5 -102t67.5 -99h-114q-30 47 -69 94.5t-82.5 91t-88 80.5t-86.5 63v-329h-97v693h97v-306l77 74.5l83 83.5l77.5 80.5t61.5 67.5h117z" />
    <glyph glyph-name="L" unicode="L" horiz-adv-x="519" 
d="M503 84v-84h-417v693h97v-609h320z" />
    <glyph glyph-name="M" unicode="M" horiz-adv-x="871" 
d="M397 96l-26.5 61l-35.5 80l-40.5 88.5l-40.5 86t-35.5 72.5t-26.5 49q-11 -118 -18 -255.5t-12 -277.5h-95q4 90 9 181.5t11.5 180t14 172.5t16.5 159h85q27 -44 58 -104l62 -125.5l60 -131l53 -119.5l53 119.5l60 131l62 125.5t58 104h85q34 -335 51 -693h-95
q-5 140 -12 277.5t-18 255.5q-10 -17 -26.5 -49t-35.5 -72.5l-40.5 -86l-40.5 -88.5l-35.5 -80l-26.5 -61h-78z" />
    <glyph glyph-name="N" unicode="N" horiz-adv-x="728" 
d="M561 0l-50.5 83l-61.5 95.5l-68.5 100.5l-70.5 98.5l-68 89.5t-61 74v-541h-95v693h77q47 -50 100.5 -116.5l106 -137l99 -138.5t78.5 -121v513h95v-693h-81z" />
    <glyph glyph-name="O" unicode="O" horiz-adv-x="778" 
d="M58 347q0 89 26.5 157t72 113.5t106 68.5t128.5 23q67 0 126.5 -23t104.5 -68.5t71.5 -113.5t26.5 -157t-26.5 -157t-71.5 -113.5t-104.5 -68.5t-126.5 -23q-68 0 -128.5 23t-106 68.5t-72 113.5t-26.5 157zM160 347q0 -63 16 -114.5t45.5 -87.5t72 -55.5t95.5 -19.5
t95 19.5t71.5 55.5t45.5 87.5t16 114.5t-16 114.5t-45.5 87.5t-71.5 55.5t-95 19.5t-95.5 -19.5t-72 -55.5t-45.5 -87.5t-16 -114.5z" />
    <glyph glyph-name="P" unicode="P" horiz-adv-x="608" 
d="M270 700q146 0 224.5 -55.5t78.5 -165.5q0 -60 -21.5 -102.5t-62 -69t-98.5 -38.5t-131 -12h-77v-257h-97v683q41 10 91.5 13.5t92.5 3.5zM278 615q-62 0 -95 -3v-272h73q50 0 90 6.5t67.5 22t42.5 42.5t15 69q0 40 -15.5 66t-42 41.5t-61.5 21.5t-74 6z" />
    <glyph glyph-name="Q" unicode="Q" horiz-adv-x="778" 
d="M58 347q0 89 26.5 157t72 113.5t106 68.5t128.5 23q67 0 126.5 -23t104.5 -68.5t71.5 -113.5t26.5 -157q0 -78 -20 -139t-55.5 -105.5t-83 -72t-101.5 -37.5q1 -23 20.5 -40.5t49.5 -29.5t67 -20t74 -12l-23 -76q-52 7 -99.5 18.5t-86 30.5t-64.5 48.5t-35 73.5
q-63 4 -119 29.5t-97 71t-65 110.5t-24 150zM160 347q0 -63 16 -114.5t45.5 -87.5t72 -55.5t95.5 -19.5t95 19.5t71.5 55.5t45.5 87.5t16 114.5t-16 114.5t-45.5 87.5t-71.5 55.5t-95 19.5t-95.5 -19.5t-72 -55.5t-45.5 -87.5t-16 -114.5z" />
    <glyph glyph-name="R" unicode="R" horiz-adv-x="629" 
d="M425 290l40.5 -52.5t50.5 -72t51.5 -82.5t43.5 -83h-106q-20 38 -43.5 77t-47.5 74.5t-47.5 66.5l-42.5 54q-13 -1 -26.5 -1h-27.5h-87v-271h-97v683q41 10 91.5 13.5t92.5 3.5q146 0 222.5 -55t76.5 -164q0 -69 -36.5 -118t-107.5 -73zM278 615q-62 0 -95 -3v-261h69
q50 0 90 5t67.5 19t42.5 39.5t15 67.5q0 39 -15 65t-40.5 41t-60 21t-73.5 6z" />
    <glyph glyph-name="S" unicode="S" horiz-adv-x="532" 
d="M247 69q152 0 152 104q0 32 -13.5 54.5t-36.5 39t-52.5 28.5t-62.5 24q-38 13 -72 29.5t-59 39t-39.5 53.5t-14.5 75q0 91 62 142t171 51q63 0 114.5 -13.5t75.5 -29.5l-31 -79q-21 13 -62.5 25.5t-96.5 12.5q-28 0 -52 -6t-42 -18t-28.5 -30.5t-10.5 -43.5q0 -28 11 -47
t31 -33.5t46.5 -26.5t58.5 -24q45 -18 82.5 -36t65 -43t42.5 -59.5t15 -83.5q0 -91 -66.5 -140t-187.5 -49q-41 0 -75.5 5.5t-61.5 13t-46.5 16t-30.5 14.5l29 80q23 -13 70 -29t115 -16z" />
    <glyph glyph-name="T" unicode="T" horiz-adv-x="565" 
d="M549 693v-84h-218v-609h-97v609h-218v84h533z" />
    <glyph glyph-name="U" unicode="U" horiz-adv-x="688" 
d="M344 -15q-68 0 -118 21t-82 57.5t-47.5 86.5t-15.5 108v435h97v-424q0 -104 46 -151t120 -47q37 0 67.5 11.5t52.5 35.5t34 61.5t12 89.5v424h97v-435q0 -58 -15.5 -108t-48 -86.5t-82 -57.5t-117.5 -21z" />
    <glyph glyph-name="V" unicode="V" horiz-adv-x="656" 
d="M646 693l-72.5 -203.5l-67.5 -177.5l-65.5 -160.5l-66.5 -151.5h-91l-66.5 151.5l-66 160.5l-68.5 177.5t-72 203.5h107l106 -304t107 -274q55 127 107 273.5l105 304.5h104z" />
    <glyph glyph-name="W" unicode="W" horiz-adv-x="929" 
d="M465 470q-42 -134 -85 -248l-86 -222h-97q-53 153 -93.5 323t-75.5 370h102l29 -156t31 -151.5l32 -140.5t33 -124l85 230.5t84 259.5h84q39 -134 85 -259.5l86 -230.5q16 56 32 123t31.5 140.5t30.5 152l29 156.5h99q-36 -200 -76.5 -370t-92.5 -323h-97
q-44 108 -86 222t-84 248z" />
    <glyph glyph-name="X" unicode="X" horiz-adv-x="631" 
d="M502 0q-15 30 -36 66.5t-46 76l-52 79l-52 74.5l-52 -74.5t-51.5 -79l-46 -76t-36.5 -66.5h-107q45 88 104.5 179l126.5 187l-222 327h112l171 -258l169 258h111l-218 -323l128 -189t106 -181h-109z" />
    <glyph glyph-name="Y" unicode="Y" horiz-adv-x="598" 
d="M251 0v278q-69 107 -130 211l-115 204h114q38 -82 85 -166.5t97 -162.5q49 78 96 162.5t86 166.5h108l-115 -203.5l-129 -209.5v-280h-97z" />
    <glyph glyph-name="Z" unicode="Z" horiz-adv-x="573" 
d="M526 616l-53.5 -62.5l-64.5 -81l-70 -94l-70.5 -100t-65.5 -100.5t-56 -95h390v-83h-503v65q21 40 49.5 88l61 98l67.5 101l69.5 98l67 88t59.5 72h-356v83h475v-77z" />
    <glyph glyph-name="bracketleft" unicode="[" horiz-adv-x="329" 
d="M96 783h225v-73h-138v-822h138v-73h-225v968z" />
    <glyph glyph-name="backslash" unicode="\" horiz-adv-x="384" 
d="M-24 783h93l339 -968h-95z" />
    <glyph glyph-name="bracketright" unicode="]" horiz-adv-x="329" 
d="M233 -185h-225v73h138v822h-138v73h225v-968z" />
    <glyph glyph-name="asciicircum" unicode="^" horiz-adv-x="564" 
d="M323 693l194 -340l-74 -38l-161 282l-161 -282l-74 38l194 340h82z" />
    <glyph glyph-name="underscore" unicode="_" horiz-adv-x="492" 
d="M-4 -106h500v-79h-500v79z" />
    <glyph glyph-name="grave" unicode="`" horiz-adv-x="376" 
d="M121 776l128 -154l-47 -42l-141 137z" />
    <glyph glyph-name="a" unicode="a" horiz-adv-x="522" 
d="M256 67q33 0 58.5 1.5t42.5 5.5v155q-10 5 -32.5 8.5t-54.5 3.5q-21 0 -44.5 -3t-43 -12.5t-32.5 -26t-13 -43.5q0 -50 32 -69.5t87 -19.5zM248 533q56 0 94.5 -14.5t62 -41t33.5 -63t10 -80.5v-325l-33.5 -5.5t-48.5 -6.5t-58.5 -5.5t-62.5 -2.5q-44 0 -81 9t-64 28.5
t-42 51.5t-15 77q0 43 17.5 74t47.5 50t70 28t84 9q14 0 29 -1.5t28.5 -4l23.5 -4.5t14 -3v26q0 23 -5 45.5t-18 40t-35.5 28t-58.5 10.5q-46 0 -80.5 -6.5t-51.5 -13.5l-11 77q18 8 60 15.5t91 7.5z" />
    <glyph glyph-name="b" unicode="b" horiz-adv-x="589" 
d="M173 497q17 11 51.5 23t79.5 12q56 0 99.5 -20t73.5 -56t45.5 -86t15.5 -110q0 -63 -18.5 -113.5t-52.5 -85.5t-82 -54t-108 -19q-65 0 -115 9t-82 18v745l93 16v-279zM173 81q14 -4 39.5 -7.5t63.5 -3.5q75 0 120 49.5t45 140.5q0 40 -8 75t-26 60.5t-46.5 40
t-68.5 14.5q-38 0 -70 -13t-49 -27v-329z" />
    <glyph glyph-name="c" unicode="c" horiz-adv-x="465" 
d="M306 -12q-63 0 -110.5 20t-80 56t-48.5 85.5t-16 109.5t17.5 110t49.5 86.5t78.5 57t103.5 20.5q35 0 70 -6t67 -19l-21 -79q-21 10 -48.5 16t-58.5 6q-78 0 -119.5 -49t-41.5 -143q0 -42 9.5 -77t30 -60t52.5 -38.5t78 -13.5q37 0 67 7t47 15l13 -78q-8 -5 -23 -9.5
t-34 -8t-40.5 -6t-41.5 -2.5z" />
    <glyph glyph-name="d" unicode="d" horiz-adv-x="589" 
d="M416 410q-17 14 -49 27t-70 13q-40 0 -68.5 -14.5t-46.5 -40t-26 -60.5t-8 -75q0 -91 45 -140.5t120 -49.5q38 0 63.5 3.5t39.5 7.5v329zM416 760l93 16v-761q-32 -9 -82 -18t-115 -9q-60 0 -108 19t-82 54t-52.5 85.5t-18.5 113.5q0 60 15.5 110t45.5 86t73.5 56
t99.5 20q45 0 79.5 -12t51.5 -23v263z" />
    <glyph glyph-name="e" unicode="e" horiz-adv-x="559" 
d="M51 259q0 69 20 120.5t53 85.5t76 51t88 17q105 0 161 -65.5t56 -199.5v-15.5t-1 -17.5h-356q6 -81 47 -123t128 -42q49 0 82.5 8.5t50.5 16.5l13 -78q-17 -9 -59.5 -19t-96.5 -10q-68 0 -117.5 20.5t-81.5 56.5t-47.5 85.5t-15.5 108.5zM408 310q1 63 -31.5 103.5
t-89.5 40.5q-32 0 -56.5 -12.5t-41.5 -32.5t-26.5 -46t-12.5 -53h258z" />
    <glyph glyph-name="f" unicode="f" horiz-adv-x="386" 
d="M283 776q41 0 70.5 -6t41.5 -11l-17 -80q-12 6 -34 11.5t-54 5.5q-65 0 -91 -35.5t-26 -95.5v-45h200v-78h-200v-442h-93v567q0 100 49 154.5t154 54.5z" />
    <glyph glyph-name="g" unicode="g" horiz-adv-x="578" 
d="M406 52q-12 -8 -46.5 -20.5t-80.5 -12.5q-47 0 -88.5 15t-72.5 46.5t-49 78.5t-18 112q0 57 17 104.5t49.5 82t79.5 54t106 19.5q65 0 113.5 -9.5t81.5 -17.5v-464q0 -120 -62 -174t-188 -54q-49 0 -92.5 8t-75.5 19l17 81q28 -11 68.5 -19.5t84.5 -8.5q83 0 119.5 33
t36.5 105v22zM405 438q-14 4 -37.5 7.5t-63.5 3.5q-75 0 -115.5 -49t-40.5 -130q0 -45 11.5 -77t31 -53t45 -31t52.5 -10q37 0 68 10.5t49 24.5v304z" />
    <glyph glyph-name="h" unicode="h" horiz-adv-x="571" 
d="M80 0v760l93 16v-266q26 10 55.5 15.5t58.5 5.5q62 0 103 -17.5t65.5 -49t34.5 -75.5t10 -97v-292h-93v272q0 48 -6.5 82t-21.5 55t-40 30.5t-62 9.5q-15 0 -31 -2t-30.5 -4.5t-26 -5.5t-16.5 -5v-432h-93z" />
    <glyph glyph-name="i" unicode="i" horiz-adv-x="253" 
d="M173 0h-93v520h93v-520zM126 614q-25 0 -42.5 16.5t-17.5 44.5t17.5 44.5t42.5 16.5t42.5 -16.5t17.5 -44.5t-17.5 -44.5t-42.5 -16.5z" />
    <glyph glyph-name="j" unicode="j" horiz-adv-x="253" 
d="M-5 -187q-12 0 -31 3t-32 8l12 76q10 -3 23 -5t24 -2q48 0 68.5 29.5t20.5 86.5v511h93v-510q0 -100 -45.5 -148.5t-132.5 -48.5zM126 614q-25 0 -42.5 16.5t-17.5 44.5t17.5 44.5t42.5 16.5t42.5 -16.5t17.5 -44.5t-17.5 -44.5t-42.5 -16.5z" />
    <glyph glyph-name="k" unicode="k" horiz-adv-x="522" 
d="M268 286q30 -23 63.5 -57t66 -73.5t61.5 -80t49 -75.5h-109q-21 35 -48.5 71.5t-57.5 70t-61 61.5t-59 47v-250h-93v760l93 16v-474l53 53l57 59l53 57.5l43 48.5h109l-50 -55l-56 -60.5l-58.5 -61z" />
    <glyph glyph-name="l" unicode="l" horiz-adv-x="273" 
d="M236 -10q-86 2 -122 37t-36 109v624l93 16v-625q0 -23 4 -38t13 -24t24 -13.5t37 -7.5z" />
    <glyph glyph-name="m" unicode="m" horiz-adv-x="861" 
d="M80 505q32 8 84.5 17t121.5 9q50 0 84 -13.5t57 -39.5q7 5 22 14t37 17.5t49 15t58 6.5q60 0 98 -17.5t59.5 -49.5t29 -76t7.5 -96v-292h-93v272q0 46 -4.5 79t-17 55t-34 32.5t-55.5 10.5q-47 0 -77.5 -12.5t-41.5 -22.5q8 -26 12 -57t4 -65v-292h-93v272q0 46 -5 79
t-17.5 55t-34 32.5t-54.5 10.5q-14 0 -30 -1t-30.5 -2.5t-26.5 -3.5t-16 -3v-439h-93v505z" />
    <glyph glyph-name="n" unicode="n" 
d="M80 505q32 8 85 17t122 9q62 0 103 -17.5t65.5 -49t34.5 -75.5t10 -97v-292h-93v272q0 48 -6.5 82t-21.5 55t-40 30.5t-62 9.5q-15 0 -31 -1t-30.5 -2.5t-26 -3.5t-16.5 -3v-439h-93v505z" />
    <glyph glyph-name="o" unicode="o" horiz-adv-x="590" 
d="M539 260q0 -62 -18 -112t-50.5 -86t-77.5 -55.5t-98 -19.5t-98 19.5t-77.5 55.5t-50.5 86t-18 112q0 61 18 111.5t50.5 86.5t77.5 55.5t98 19.5t98 -19.5t77.5 -55.5t50.5 -86.5t18 -111.5zM442 260q0 88 -39.5 139.5t-107.5 51.5t-107.5 -51.5t-39.5 -139.5t39.5 -139.5
t107.5 -51.5t107.5 51.5t39.5 139.5z" />
    <glyph glyph-name="p" unicode="p" horiz-adv-x="589" 
d="M441 259q0 91 -45 140t-120 49q-42 0 -65.5 -3t-37.5 -7v-328q17 -14 49 -27t70 -13q40 0 68.5 14.5t46.5 40t26 60t8 74.5zM538 259q0 -59 -15.5 -109t-45.5 -86t-73.5 -56t-99.5 -20q-45 0 -79.5 12t-51.5 23v-208h-93v689q33 8 82.5 17.5t114.5 9.5q60 0 108 -19
t82 -54t52.5 -85.5t18.5 -113.5z" />
    <glyph glyph-name="q" unicode="q" horiz-adv-x="589" 
d="M148 259q0 -40 8 -74.5t26 -60t46.5 -40t68.5 -14.5q38 0 70 13t49 27v328q-14 4 -37.5 7t-65.5 3q-75 0 -120 -49t-45 -140zM51 259q0 63 18.5 113.5t52.5 85.5t82 54t108 19q65 0 114.5 -9.5t82.5 -17.5v-689h-93v208q-17 -11 -51.5 -23t-79.5 -12q-56 0 -99.5 20
t-73.5 56t-45.5 86t-15.5 109z" />
    <glyph glyph-name="r" unicode="r" horiz-adv-x="386" 
d="M272 531q12 0 27.5 -1.5t30.5 -4t27.5 -5t18.5 -4.5l-16 -81q-11 4 -36.5 9.5t-65.5 5.5q-26 0 -51.5 -5.5t-33.5 -7.5v-437h-93v498q33 12 82 22.5t110 10.5z" />
    <glyph glyph-name="s" unicode="s" horiz-adv-x="446" 
d="M201 67q57 0 84.5 15t27.5 48q0 34 -27 54t-89 45q-30 12 -57.5 24.5t-47.5 29.5t-32 41t-12 59q0 69 51 109.5t139 40.5q22 0 44 -2.5t41 -6t33.5 -7.5t22.5 -7l-17 -80q-15 8 -47 16.5t-77 8.5q-39 0 -68 -15.5t-29 -48.5q0 -17 6.5 -30t20 -23.5t33.5 -19.5t48 -19
q37 -14 66 -27.5t49.5 -31.5t31.5 -43.5t11 -62.5q0 -72 -53.5 -109t-152.5 -37q-69 0 -108 11.5t-53 17.5l17 80q16 -6 51 -18t93 -12z" />
    <glyph glyph-name="t" unicode="t" horiz-adv-x="402" 
d="M167 520h197v-78h-197v-240q0 -39 6 -64.5t18 -40t30 -20.5t42 -6q42 0 67.5 9.5t35.5 13.5l18 -77q-14 -7 -49 -17.5t-80 -10.5q-53 0 -87.5 13.5t-55.5 40.5t-29.5 66.5t-8.5 91.5v464l93 16v-161z" />
    <glyph glyph-name="u" unicode="u" 
d="M494 15q-32 -8 -84.5 -17t-121.5 -9q-60 0 -101 17.5t-66 49.5t-36 75.5t-11 96.5v292h93v-272q0 -95 30 -136t101 -41q15 0 31 1t30 2.5t25.5 3t16.5 3.5v439h93v-505z" />
    <glyph glyph-name="v" unicode="v" horiz-adv-x="502" 
d="M486 520q-39 -146 -91.5 -280t-101.5 -240h-84q-49 106 -101.5 240t-91.5 280h100q12 -49 28.5 -104.5t35 -110l37.5 -105.5t36 -91q17 40 36 91l37.5 105.5t35 110t28.5 104.5h96z" />
    <glyph glyph-name="w" unicode="w" horiz-adv-x="777" 
d="M505 0q-28 72 -59.5 164.5t-57.5 192.5q-26 -100 -57 -192.5t-59 -164.5h-81q-46 103 -90 235t-83 285h100q10 -47 24 -102t29.5 -110t32.5 -106t32 -89q17 47 33.5 99.5t31.5 106l28.5 105t23.5 96.5h77q9 -45 22 -96.5t28 -105t31.5 -106t33.5 -99.5q15 38 31.5 89
t32.5 106t30 110t24 102h96q-39 -153 -83 -285t-90 -235h-81z" />
    <glyph glyph-name="x" unicode="x" horiz-adv-x="511" 
d="M391 0q-11 22 -27 49t-35 55.5l-39 56.5l-39 53l-39 -53.5l-38.5 -57l-34.5 -55.5t-27 -48h-96q35 68 83.5 138.5l96.5 134.5l-172 247h105l124 -182l125 182h99l-168 -241l98.5 -137.5t85.5 -141.5h-102z" />
    <glyph glyph-name="y" unicode="y" horiz-adv-x="497" 
d="M19 -97q11 -5 28.5 -9.5t34.5 -4.5q55 0 86 24.5t56 79.5q-63 120 -117.5 254.5t-90.5 272.5h100q11 -45 26.5 -97t34.5 -107t41 -110t46 -106q38 105 66 208t53 212h96q-36 -147 -80 -282.5t-95 -253.5q-20 -45 -41.5 -77.5t-47.5 -53.5t-58.5 -31t-73.5 -10
q-11 0 -23 1.5t-23.5 4t-21 5.5t-13.5 5z" />
    <glyph glyph-name="z" unicode="z" horiz-adv-x="471" 
d="M425 450q-21 -23 -55.5 -65l-74 -93l-79 -107t-69.5 -107h286v-78h-397v62q24 44 59 97t73.5 105.5l75 99l63.5 78.5h-257v78h375v-70z" />
    <glyph glyph-name="braceleft" unicode="{" horiz-adv-x="333" 
d="M40 335q24 0 41 8.5t28.5 22t17 31t5.5 35.5v180q0 41 9 73t31 53.5t58.5 33t90.5 11.5h4v-73q-57 0 -81.5 -20.5t-24.5 -78.5v-154q0 -66 -17.5 -102t-49.5 -56q32 -20 49.5 -56t17.5 -102v-154q0 -58 24.5 -78.5t81.5 -20.5v-73h-4q-54 0 -90.5 11t-58.5 33t-31 54
t-9 73v180q0 18 -5.5 35.5t-17 31t-28.5 22t-41 8.5v72z" />
    <glyph glyph-name="bar" unicode="|" horiz-adv-x="279" 
d="M96 783h87v-968h-87v968z" />
    <glyph glyph-name="braceright" unicode="}" horiz-adv-x="333" 
d="M293 263q-24 0 -41 -8.5t-28.5 -22t-17 -31t-5.5 -35.5v-180q0 -41 -9 -73t-31 -54t-58.5 -33t-90.5 -11h-4v73q57 0 81.5 20.5t24.5 78.5v154q0 66 17.5 102t49.5 56q-32 20 -49.5 56t-17.5 102v154q0 58 -24.5 78.5t-81.5 20.5v73h4q54 0 90.5 -11.5t58.5 -33t31 -53.5
t9 -73v-180q0 -18 5.5 -35.5t17 -31t28.5 -22t41 -8.5v-72z" />
    <glyph glyph-name="asciitilde" unicode="~" horiz-adv-x="564" 
d="M520 357q-4 -20 -12.5 -44t-24.5 -45.5t-40.5 -36t-59.5 -14.5q-30 0 -55.5 12t-48.5 26l-52 31.5t-53 15.5q-16 0 -27 -7.5t-19 -19t-13 -25t-9 -26.5l-64 18q4 19 13 43.5t24.5 46t40 36t59.5 14.5q30 0 55.5 -12t48.5 -26l52 -31.5t53 -15.5q16 0 27 7.5t19 19t13 25
t9 26.5z" />
    <glyph glyph-name="Euro" unicode="&#x20ac;" horiz-adv-x="564" 
d="M137 472q23 117 91 175.5t174 58.5q44 0 73 -5.5t58 -14.5l-20 -80q-24 9 -52.5 14.5t-58.5 5.5q-38 0 -66.5 -11t-49 -31t-33.5 -48.5t-20 -63.5h233l-14 -72h-229q-1 -13 -1 -26v-27v-25t1 -23h209l-14 -72h-187q17 -89 61.5 -124t111.5 -35q42 0 72.5 8t54.5 19
l20 -79q-17 -9 -59 -19t-93 -10q-117 0 -181 63.5t-83 176.5h-90v72h82q-1 11 -1 23v25v27t1 26h-82v72h92z" />
    <glyph glyph-name="quotesinglbase" unicode="&#x201a;" horiz-adv-x="235" 
d="M175 114v-21.5t-1 -20.5q-4 -52 -23 -103t-46 -95l-72 23q21 44 31.5 89t10.5 84q0 10 -0.5 21.5t-1.5 22.5h102z" />
    <glyph glyph-name="florin" unicode="&#x192;" horiz-adv-x="386" 
d="M285 776q39 0 68.5 -6t41.5 -11l-17 -80q-11 6 -33.5 11.5t-51.5 5.5q-68 0 -94 -35t-26 -96v-45h200v-78h-200v-432q0 -100 -45.5 -148.5t-126.5 -48.5q-41 0 -69 11l12 76q11 -3 23.5 -5t25.5 -2q47 0 67 29.5t20 86.5v558q0 100 48.5 154.5t156.5 54.5z" />
    <glyph glyph-name="quotedblbase" unicode="&#x201e;" horiz-adv-x="417" 
d="M175 114v-21.5t-1 -20.5q-4 -52 -23 -103t-46 -95l-72 23q21 44 31.5 89t10.5 84q0 10 -0.5 21.5t-1.5 22.5h102zM357 114v-21.5t-1 -20.5q-4 -52 -23 -103t-46 -95l-72 23q21 44 31.5 89t10.5 84q0 10 -0.5 21.5t-1.5 22.5h102z" />
    <glyph glyph-name="ellipsis" unicode="&#x2026;" horiz-adv-x="996" 
d="M232 54q0 -27 -18 -47t-49 -20t-49 20t-18 47t18 47t49 20t49 -20t18 -47zM565 54q0 -27 -18 -47t-49 -20t-49 20t-18 47t18 47t49 20t49 -20t18 -47zM898 54q0 -27 -18 -47t-49 -20t-49 20t-18 47t18 47t49 20t49 -20t18 -47z" />
    <glyph glyph-name="dagger" unicode="&#x2020;" horiz-adv-x="476" 
d="M278 399v-255q0 -84 -4 -152.5t-13 -136.5h-46q-9 68 -13 136.5t-4 152.5v255h-159v77h159v217h80v-217h159v-77h-159z" />
    <glyph glyph-name="daggerdbl" unicode="&#x2021;" horiz-adv-x="476" 
d="M278 134q0 -81 -4 -146.5t-13 -132.5h-46q-9 67 -13 132.5t-4 146.5h-159v77h159v188h-159v77h159v217h80v-217h159v-77h-159v-188h159v-77h-159z" />
    <glyph glyph-name="circumflex" unicode="&#x2c6;" horiz-adv-x="376" 
d="M188 769l136 -143l-39 -44l-97 88l-97 -88l-39 44z" />
    <glyph glyph-name="perthousand" unicode="&#x2030;" horiz-adv-x="1227" 
d="M50 524q0 45 12 79t33.5 57.5t50.5 35.5t63 12t63 -12t50.5 -35.5t33.5 -57.5t12 -79t-12 -79t-33.5 -57.5t-50.5 -35.5t-63 -12t-63 12t-50.5 35.5t-33.5 57.5t-12 79zM290 524q0 54 -21 84.5t-60 30.5t-60 -30.5t-21 -84.5t21 -84.5t60 -30.5t60 30.5t21 84.5zM490 169
q0 45 12 79t33.5 57.5t50.5 35.5t63 12t63 -12t50.5 -35.5t33.5 -57.5t12 -79t-12 -79t-33.5 -57.5t-50.5 -35.5t-63 -12t-63 12t-50.5 35.5t-33.5 57.5t-12 79zM730 169q0 54 -21 84.5t-60 30.5t-60 -30.5t-21 -84.5t21 -84.5t60 -30.5t60 30.5t21 84.5zM670 693l-391 -693
h-91l391 693h91zM859 169q0 45 12 79t33.5 57.5t50.5 35.5t63 12t63 -12t50.5 -35.5t33.5 -57.5t12 -79t-12 -79t-33.5 -57.5t-50.5 -35.5t-63 -12t-63 12t-50.5 35.5t-33.5 57.5t-12 79zM1099 169q0 54 -21 84.5t-60 30.5t-60 -30.5t-21 -84.5t21 -84.5t60 -30.5t60 30.5
t21 84.5z" />
    <glyph glyph-name="Scaron" unicode="&#x160;" horiz-adv-x="532" 
d="M247 69q152 0 152 104q0 32 -13.5 54.5t-36.5 39t-52.5 28.5t-62.5 24q-38 13 -72 29.5t-59 39t-39.5 53.5t-14.5 75q0 91 62 142t171 51q63 0 114.5 -13.5t75.5 -29.5l-31 -79q-21 13 -62.5 25.5t-96.5 12.5q-28 0 -52 -6t-42 -18t-28.5 -30.5t-10.5 -43.5q0 -28 11 -47
t31 -33.5t46.5 -26.5t58.5 -24q45 -18 82.5 -36t65 -43t42.5 -59.5t15 -83.5q0 -91 -66.5 -140t-187.5 -49q-41 0 -75.5 5.5t-61.5 13t-46.5 16t-30.5 14.5l29 80q23 -13 70 -29t115 -16zM140 885l39 44l97 -88l97 88l39 -44l-136 -143z" />
    <glyph glyph-name="guilsinglleft" unicode="&#x2039;" horiz-adv-x="291" 
d="M30 284l156 221l65 -35l-111 -186l111 -186l-65 -35z" />
    <glyph glyph-name="OE" unicode="&#x152;" horiz-adv-x="993" 
d="M161 347q0 -64 19 -114t54.5 -84.5t86.5 -53t114 -18.5q23 0 39.5 0.5t27.5 1.5q12 1 21 3v529q-22 3 -44 4t-44 1q-63 0 -114 -18.5t-86.5 -53t-54.5 -84.5t-19 -113zM435 -7q-81 0 -150 22t-119.5 66t-79 110.5t-28.5 155.5t29 155t79.5 110t119.5 66t150 22
q23 0 51 -2t53 -5h391v-81h-311v-209h275v-79h-275v-243h336v-81h-416q-25 -3 -53.5 -5t-51.5 -2z" />
    <glyph glyph-name="quoteleft" unicode="&#x2018;" horiz-adv-x="235" 
d="M60 520v21.5t1 20.5q4 52 23 103t46 95l72 -23q-21 -44 -31.5 -89t-10.5 -84q0 -10 0.5 -21.5t1.5 -22.5h-102z" />
    <glyph glyph-name="quoteright" unicode="&#x2019;" horiz-adv-x="235" 
d="M175 750v-21.5t-1 -20.5q-4 -52 -23 -102.5t-46 -95.5l-72 23q21 45 31.5 89.5t10.5 83.5q0 10 -0.5 21.5t-1.5 22.5h102z" />
    <glyph glyph-name="quotedblleft" unicode="&#x201c;" horiz-adv-x="417" 
d="M60 520v21.5t1 20.5q4 52 23 103t46 95l72 -23q-21 -44 -31.5 -89t-10.5 -84q0 -10 0.5 -21.5t1.5 -22.5h-102zM242 520v21.5t1 20.5q4 52 23 103t46 95l72 -23q-21 -44 -31.5 -89t-10.5 -84q0 -10 0.5 -21.5t1.5 -22.5h-102z" />
    <glyph glyph-name="quotedblright" unicode="&#x201d;" horiz-adv-x="417" 
d="M175 750v-21.5t-1 -20.5q-4 -52 -23 -102.5t-46 -95.5l-72 23q21 45 31.5 89.5t10.5 83.5q0 10 -0.5 21.5t-1.5 22.5h102zM357 750v-21.5t-1 -20.5q-4 -52 -23 -102.5t-46 -95.5l-72 23q21 45 31.5 89.5t10.5 83.5q0 10 -0.5 21.5t-1.5 22.5h102z" />
    <glyph glyph-name="bullet" unicode="&#x2022;" horiz-adv-x="360" 
d="M308 353q0 -26 -9 -49t-25.5 -40t-40 -27.5t-53.5 -10.5t-53.5 10.5t-40 27.5t-25.5 40t-9 49q0 25 9 48.5t25.5 40.5t40 27.5t53.5 10.5t53.5 -10.5t40 -27.5t25.5 -40.5t9 -48.5z" />
    <glyph glyph-name="endash" unicode="&#x2013;" horiz-adv-x="496" 
d="M-2 339h500v-79h-500v79z" />
    <glyph glyph-name="emdash" unicode="&#x2014;" horiz-adv-x="996" 
d="M-2 339h1000v-79h-1000v79z" />
    <glyph glyph-name="tilde" unicode="&#x2dc;" horiz-adv-x="376" 
d="M352 711q-5 -12 -13.5 -28t-21.5 -29.5t-30.5 -23t-38.5 -9.5q-20 0 -37.5 7t-33.5 15q-17 8 -29 12t-23 4q-17 0 -31.5 -14t-22.5 -30l-48 24q4 12 13 28t22 29.5t30.5 23t38.5 9.5q20 0 37.5 -7t33.5 -15q17 -8 29 -12t23 -4q17 0 31.5 14t22.5 30z" />
    <glyph glyph-name="trademark" unicode="&#x2122;" horiz-adv-x="759" 
d="M302 693v-61h-105v-272h-69v272h-105v61h279zM682 693q8 -51 14 -130.5t14 -202.5h-70q-1 25 -2 53.5t-2.5 57t-3.5 56.5t-4 52q-11 -19 -24 -44.5l-25.5 -50.5l-24 -47t-17.5 -35h-49q-6 13 -17.5 35l-24 47l-26 50.5l-23.5 44.5q-2 -24 -4 -52t-3.5 -56.5t-2.5 -57
t-2 -53.5h-69q8 123 14 202.5t14 130.5h66l20 -41l26 -52l28.5 -57l28.5 -56l28 56l29 57l26 52l20 41h66z" />
    <glyph glyph-name="scaron" unicode="&#x161;" horiz-adv-x="446" 
d="M201 67q57 0 84.5 15t27.5 48q0 34 -27 54t-89 45q-30 12 -57.5 24.5t-47.5 29.5t-32 41t-12 59q0 69 51 109.5t139 40.5q22 0 44 -2.5t41 -6t33.5 -7.5t22.5 -7l-17 -80q-15 8 -47 16.5t-77 8.5q-39 0 -68 -15.5t-29 -48.5q0 -17 6.5 -30t20 -23.5t33.5 -19.5t48 -19
q37 -14 66 -27.5t49.5 -31.5t31.5 -43.5t11 -62.5q0 -72 -53.5 -109t-152.5 -37q-69 0 -108 11.5t-53 17.5l17 80q16 -6 51 -18t93 -12zM87 729l39 44l97 -88l97 88l39 -44l-136 -143z" />
    <glyph glyph-name="guilsinglright" unicode="&#x203a;" horiz-adv-x="291" 
d="M105 63l-65 35l111 186l-111 186l65 35l156 -221z" />
    <glyph glyph-name="oe" unicode="&#x153;" horiz-adv-x="947" 
d="M701 -12q-79 0 -131.5 29t-81.5 80q-32 -54 -81 -82t-112 -28q-53 0 -98 19.5t-77.5 55.5t-50.5 86t-18 112q0 61 18 111.5t50.5 86.5t77.5 55.5t98 19.5q63 0 112.5 -29.5t80.5 -80.5q33 56 83.5 83t104.5 27q104 0 160.5 -66t56.5 -199q0 -8 -0.5 -13.5t-0.5 -10.5v-9
h-356q6 -80 47.5 -122.5t127.5 -42.5q49 0 82.5 8.5t50.5 16.5l13 -78q-17 -9 -59.5 -19t-96.5 -10zM442 260q0 88 -39.5 139.5t-107.5 51.5t-107.5 -51.5t-39.5 -139.5t39.5 -139.5t107.5 -51.5t107.5 51.5t39.5 139.5zM796 310q1 63 -31.5 103.5t-89.5 40.5
q-32 0 -56.5 -12.5t-41 -32.5t-26.5 -46t-13 -53h258z" />
    <glyph glyph-name="Ydieresis" unicode="&#x178;" horiz-adv-x="598" 
d="M251 0v278q-69 107 -130 211l-115 204h114q38 -82 85 -166.5t97 -162.5q49 78 96 162.5t86 166.5h108l-115 -203.5l-129 -209.5v-280h-97zM204 772q-23 0 -40.5 16.5t-17.5 42.5t17.5 42.5t40.5 16.5t40.5 -16.5t17.5 -42.5t-17.5 -42.5t-40.5 -16.5zM394 772
q-23 0 -40.5 16.5t-17.5 42.5t17.5 42.5t40.5 16.5t40.5 -16.5t17.5 -42.5t-17.5 -42.5t-40.5 -16.5z" />
    <glyph glyph-name="uni00A0" unicode="&#xa0;" horiz-adv-x="231" 
 />
    <glyph glyph-name="exclamdown" unicode="&#xa1;" horiz-adv-x="276" 
d="M88 2q0 84 6 152.5t15 136.5h58q9 -68 15 -136.5t6 -152.5v-187h-100v187zM71 453q0 27 18 47t49 20t49 -20t18 -47t-18 -47t-49 -20t-49 20t-18 47z" />
    <glyph glyph-name="cent" unicode="&#xa2;" horiz-adv-x="564" 
d="M86 291q0 49 13.5 92t38 77t60.5 57t81 32v144h83v-139q58 -3 110 -23l-21 -77q-21 9 -48.5 15t-58.5 6q-78 0 -119.5 -47t-41.5 -137q0 -40 9.5 -73.5t30 -57.5t52.5 -37t78 -13q37 0 67 7t47 14l13 -76q-14 -8 -48 -15.5t-70 -9.5v-139h-83v144q-48 9 -84 31.5t-60 56
t-36.5 76.5t-12.5 92z" />
    <glyph glyph-name="sterling" unicode="&#xa3;" horiz-adv-x="564" 
d="M246 373h189v-75h-189v-8q0 -50 -4 -105t-12 -105h289v-80h-394q11 71 19.5 141.5t8.5 141.5v15h-93v75h93v83q0 74 15.5 122.5t44 77t68.5 39.5t88 11q44 0 74 -8t58 -19l-23 -80q-53 25 -113 25q-27 0 -49 -8t-37.5 -27t-24 -51t-8.5 -80v-85z" />
    <glyph glyph-name="currency" unicode="&#xa4;" horiz-adv-x="564" 
d="M89 347q0 61 28 106l-73 74l58 58l74 -75q47 29 106 29t105 -29l75 75l58 -58l-74 -74q14 -22 21.5 -48.5t7.5 -57.5q0 -32 -7.5 -58t-21.5 -48l74 -74l-58 -58l-75 74q-48 -28 -105 -28q-29 0 -56 7t-50 21l-74 -74l-58 58l73 73q-28 45 -28 107zM400 347q0 28 -9.5 51
t-25.5 39.5t-37.5 25t-45.5 8.5t-45.5 -8.5t-37.5 -25t-25.5 -39.5t-9.5 -51q0 -29 9.5 -51.5t25.5 -39t37.5 -25t45.5 -8.5t45.5 8.5t37.5 25t25.5 39t9.5 51.5z" />
    <glyph glyph-name="yen" unicode="&#xa5;" horiz-adv-x="564" 
d="M237 0v106h-162v71h162v102h-162v71h136l-102.5 174.5l-91.5 168.5h103q36 -78 78 -156t87 -150q44 72 84.5 150l77.5 156h101l-92.5 -169.5t-102.5 -173.5h137v-71h-162v-102h162v-71h-162v-106h-91z" />
    <glyph glyph-name="brokenbar" unicode="&#xa6;" horiz-adv-x="279" 
d="M96 198h87v-383h-87v383zM96 783h87v-383h-87v383z" />
    <glyph glyph-name="section" unicode="&#xa7;" horiz-adv-x="492" 
d="M68 -1q30 -13 66 -22t92 -9t84.5 16.5t28.5 52.5q0 35 -27 54.5t-91 41.5q-36 12 -68.5 26t-57 34t-38.5 48t-14 68q0 26 8.5 48.5t21 41t28.5 32t31 22.5q-25 20 -39.5 46t-14.5 60q0 69 48.5 109.5t136.5 40.5q51 0 95 -10t70 -18l-21 -77q-24 9 -58.5 19t-86.5 10
q-39 0 -67.5 -16.5t-28.5 -49.5q0 -18 6 -30.5t19 -23t33 -19.5t48 -18q36 -12 68.5 -26t57 -34t38.5 -48t14 -68q0 -25 -8 -47t-20 -40t-27.5 -32.5t-30.5 -23.5q29 -21 47 -49t18 -65q0 -75 -53 -113.5t-151 -38.5q-67 0 -110.5 10.5t-69.5 23.5zM220 408q-7 2 -13.5 4.5
t-13.5 5.5q-29 -19 -47 -44.5t-18 -55.5q0 -26 11.5 -43.5t32 -31t48.5 -24t61 -21.5q5 -2 9.5 -3.5t9.5 -3.5q29 19 47 44t18 56q0 26 -11.5 43.5t-31.5 30.5t-46 23t-56 20z" />
    <glyph glyph-name="dieresis" unicode="&#xa8;" horiz-adv-x="376" 
d="M93 616q-23 0 -40.5 16.5t-17.5 42.5t17.5 42.5t40.5 16.5t40.5 -16.5t17.5 -42.5t-17.5 -42.5t-40.5 -16.5zM283 616q-23 0 -40.5 16.5t-17.5 42.5t17.5 42.5t40.5 16.5t40.5 -16.5t17.5 -42.5t-17.5 -42.5t-40.5 -16.5z" />
    <glyph glyph-name="copyright" unicode="&#xa9;" horiz-adv-x="814" 
d="M749 347q0 -85 -28 -152.5t-75 -114t-109 -71t-130 -24.5t-130 24.5t-109 71t-75 114t-28 152.5t28 152.5t75 114t109 71t130 24.5t130 -24.5t109 -71t75 -114t28 -152.5zM676 347q0 66 -20 120.5t-55.5 93.5t-85 60t-108.5 21t-108.5 -21t-85 -60t-55.5 -93.5
t-20 -120.5t20 -120.5t55.5 -93.5t85 -60t108.5 -21t108.5 21t85 60t55.5 93.5t20 120.5zM419 140q-43 0 -78 14t-60.5 40t-39.5 64.5t-14 88.5q0 49 15.5 87t41.5 64.5t61 40.5t74 14q26 0 47.5 -4t37.5 -9.5t26.5 -11t14.5 -8.5l-23 -60q-12 7 -38.5 16.5t-61.5 9.5
q-51 0 -85 -35.5t-34 -103.5q0 -62 31 -101.5t91 -39.5q39 0 64.5 8.5t39.5 15.5l19 -60q-5 -3 -16.5 -8.5t-28.5 -10t-38.5 -8t-45.5 -3.5z" />
    <glyph glyph-name="ordfeminine" unicode="&#xaa;" horiz-adv-x="389" 
d="M196 391q22 0 44 1t27 3v100q-11 2 -28 3t-33 1q-17 0 -34.5 -2t-31.5 -8t-23 -16.5t-9 -26.5q0 -30 23.5 -42.5t64.5 -12.5zM189 706q41 0 69 -10t45.5 -28t25 -43.5t7.5 -57.5v-224q-24 -5 -65 -9.5t-82 -4.5q-33 0 -60.5 6.5t-47.5 20.5t-31.5 36t-11.5 54q0 31 13 53
t35 35.5t51 19.5t61 6q14 0 31 -1t38 -4v3q0 15 -3 30t-12 26.5t-25 19t-42 7.5q-23 0 -50.5 -3t-47.5 -10l-10 63q19 5 49.5 10t62.5 5z" />
    <glyph glyph-name="guillemotleft" unicode="&#xab;" horiz-adv-x="499" 
d="M30 284l156 221l65 -35l-111 -186l111 -186l-65 -35zM238 284l156 221l65 -35l-111 -186l111 -186l-65 -35z" />
    <glyph glyph-name="logicalnot" unicode="&#xac;" horiz-adv-x="564" 
d="M511 394v-341h-80v262h-378v79h458z" />
    <glyph glyph-name="uni00AD" unicode="&#xad;" horiz-adv-x="299" 
d="M26 343h247v-87h-247v87z" />
    <glyph glyph-name="registered" unicode="&#xae;" horiz-adv-x="814" 
d="M749 347q0 -85 -28 -152.5t-75 -114t-109 -71t-130 -24.5t-130 24.5t-109 71t-75 114t-28 152.5t28 152.5t75 114t109 71t130 24.5t130 -24.5t109 -71t75 -114t28 -152.5zM676 347q0 66 -20 120.5t-55.5 93.5t-85 60t-108.5 21t-108.5 -21t-85 -60t-55.5 -93.5
t-20 -120.5t20 -120.5t55.5 -93.5t85 -60t108.5 -21t108.5 21t85 60t55.5 93.5t20 120.5zM506 148q-23 45 -51.5 85.5t-49.5 64.5h-67v-150h-71v388q27 6 57 9t55 3q86 0 131 -32t45 -97q0 -37 -19.5 -64.5t-55.5 -42.5q10 -12 23 -30t27 -40l28 -46t25 -48h-77zM338 356h38
q45 0 75 12.5t30 51.5q0 37 -28.5 51.5t-68.5 14.5q-11 0 -23 -0.5t-23 -1.5v-128z" />
    <glyph glyph-name="macron" unicode="&#xaf;" horiz-adv-x="376" 
d="M46 711h284v-72h-284v72z" />
    <glyph glyph-name="degree" unicode="&#xb0;" horiz-adv-x="332" 
d="M306 637q0 -32 -11.5 -58t-30.5 -44t-44.5 -27.5t-53.5 -9.5t-53.5 9.5t-44.5 27.5t-30.5 44t-11.5 58t11.5 58t30.5 44t44.5 27.5t53.5 9.5t53.5 -9.5t44.5 -27.5t30.5 -44t11.5 -58zM239 637q0 35 -21.5 55.5t-51.5 20.5t-51.5 -20.5t-21.5 -55.5t21.5 -55.5
t51.5 -20.5t51.5 20.5t21.5 55.5z" />
    <glyph glyph-name="plusminus" unicode="&#xb1;" horiz-adv-x="564" 
d="M53 419h189v201h80v-201h189v-79h-189v-201h-80v201h-189v79zM53 79h458v-79h-458v79z" />
    <glyph glyph-name="twosuperior" unicode="&#xb2;" horiz-adv-x="359" 
d="M296 598q0 -21 -9.5 -41t-25.5 -39.5t-37 -39l-45 -40.5q-17 -14 -33.5 -30.5t-19.5 -29.5h186v-63h-266q-3 33 4.5 58.5t22 46.5t33.5 38.5l40 35.5q34 29 55.5 53.5t21.5 48.5q0 26 -16.5 38t-45.5 12q-17 0 -32 -4.5t-27 -11t-21.5 -13t-14.5 -10.5l-36 49
q17 18 51.5 35.5t79.5 17.5q69 0 102 -29t33 -82z" />
    <glyph glyph-name="threesuperior" unicode="&#xb3;" horiz-adv-x="359" 
d="M144 369q53 0 73 16.5t20 42.5q0 17 -9 29t-24.5 19.5t-35.5 11t-41 3.5h-19v57h25q14 0 29.5 2.5t28 8.5t20.5 16.5t8 25.5q0 25 -18.5 35.5t-47.5 10.5q-27 0 -50 -9.5t-40 -17.5l-25 55q16 11 49.5 22.5t67.5 11.5q73 0 103.5 -29.5t30.5 -75.5q0 -49 -55 -80
q35 -11 55.5 -36.5t20.5 -60.5q0 -26 -9 -47.5t-29 -38t-51.5 -25.5t-75.5 -9q-31 0 -63 7t-50 16l15 60q22 -8 46.5 -14.5t50.5 -6.5z" />
    <glyph glyph-name="acute" unicode="&#xb4;" horiz-adv-x="376" 
d="M315 717l-141 -137l-47 42l128 154z" />
    <glyph glyph-name="mu" unicode="&#xb5;" horiz-adv-x="580" 
d="M173 520v-278q0 -95 31 -133t100 -38q15 0 31 1t30 2.5t25.5 3t16.5 3.5v439h93v-505q-32 -8 -82.5 -17t-110.5 -9q-55 0 -87.5 11.5t-52.5 33.5q3 -28 4 -56.5t1 -59.5v-103h-92v705h93z" />
    <glyph glyph-name="paragraph" unicode="&#xb6;" horiz-adv-x="646" 
d="M386 623q-8 0 -16 -0.5t-14 -1.5v-806h-78v447q-111 11 -173 63t-62 154q0 55 22.5 96t64.5 69t102 42t134 14q42 0 90 -3.5t89 -13.5v-868h-78v803q-14 2 -35 3.5t-46 1.5z" />
    <glyph glyph-name="periodcentered" unicode="&#xb7;" horiz-adv-x="246" 
d="M190 294q0 -27 -18 -47t-49 -20t-49 20t-18 47t18 47t49 20t49 -20t18 -47z" />
    <glyph glyph-name="cedilla" unicode="&#xb8;" horiz-adv-x="376" 
d="M199 -37q29 -14 42 -30.5t13 -48.5q0 -11 -5 -24t-17 -24t-32 -18t-49 -7q-26 0 -47.5 4t-34.5 9l11 57q12 -4 25.5 -7t30.5 -3q36 0 36 23q0 11 -11 18.5t-31 15.5l-7 3q3 10 9 23.5l12 26.5t11.5 23.5t8.5 15.5h64l-15 -28t-14 -29z" />
    <glyph glyph-name="onesuperior" unicode="&#xb9;" horiz-adv-x="359" 
d="M50 621q38 13 75 33.5t64 46.5h49v-386h-70v294q-22 -14 -50.5 -25t-48.5 -17z" />
    <glyph glyph-name="ordmasculine" unicode="&#xba;" horiz-adv-x="446" 
d="M403 518q0 -43 -13.5 -78t-37.5 -60t-57 -38.5t-72 -13.5t-72 13.5t-57 38.5t-37.5 60t-13.5 78t13.5 78.5t37.5 60t57 38t72 13.5t72 -13.5t57 -38t37.5 -60t13.5 -78.5zM329 518q0 56 -27.5 89.5t-78.5 33.5q-50 0 -78 -33.5t-28 -89.5q0 -55 27.5 -89t78.5 -34
t78.5 34t27.5 89z" />
    <glyph glyph-name="guillemotright" unicode="&#xbb;" horiz-adv-x="499" 
d="M105 63l-65 35l111 186l-111 186l65 35l156 -221zM313 63l-65 35l111 186l-111 186l65 35l156 -221z" />
    <glyph glyph-name="onequarter" unicode="&#xbc;" horiz-adv-x="874" 
d="M50 621q38 13 75 33.5t64 46.5h49v-386h-70v294q-22 -14 -50.5 -25t-48.5 -17zM674 693l-391 -693h-87l391 693h87zM800 389v-234h50v-59h-50v-93h-68v93h-193v46q14 25 36 57t48 66t55 66.5t58 57.5h64zM732 306q-31 -32 -63 -72.5t-55 -78.5h118v151z" />
    <glyph glyph-name="onehalf" unicode="&#xbd;" horiz-adv-x="874" 
d="M50 621q38 13 75 33.5t64 46.5h49v-386h-70v294q-22 -14 -50.5 -25t-48.5 -17zM653 693l-391 -693h-87l391 693h87zM811 286q0 -21 -9.5 -41t-25.5 -39.5t-37 -39l-45 -40.5q-17 -14 -33.5 -30.5t-19.5 -29.5h186v-63h-266q-3 33 4.5 58.5t22 46.5t33.5 38.5l40 35.5
q34 29 55.5 53.5t21.5 48.5q0 26 -16.5 38t-45.5 12q-17 0 -32 -4.5t-27 -11t-21.5 -13t-14.5 -10.5l-36 49q17 18 51.5 35.5t79.5 17.5q69 0 102 -29t33 -82z" />
    <glyph glyph-name="threequarters" unicode="&#xbe;" horiz-adv-x="874" 
d="M144 369q53 0 73 16.5t20 42.5q0 17 -9 29t-24.5 19.5t-35.5 11t-41 3.5h-19v57h25q14 0 29.5 2.5t28 8.5t20.5 16.5t8 25.5q0 25 -18.5 35.5t-47.5 10.5q-27 0 -50 -9.5t-40 -17.5l-25 55q16 11 49.5 22.5t67.5 11.5q73 0 103.5 -29.5t30.5 -75.5q0 -49 -55 -80
q35 -11 55.5 -36.5t20.5 -60.5q0 -26 -9 -47.5t-29 -38t-51.5 -25.5t-75.5 -9q-31 0 -63 7t-50 16l15 60q22 -8 46.5 -14.5t50.5 -6.5zM689 693l-391 -693h-87l391 693h87zM800 389v-234h50v-59h-50v-93h-68v93h-193v46q14 25 36 57t48 66t55 66.5t58 57.5h64zM732 306
q-31 -32 -63 -72.5t-55 -78.5h118v151z" />
    <glyph glyph-name="questiondown" unicode="&#xbf;" horiz-adv-x="404" 
d="M126 -23q0 -38 27.5 -62.5t76.5 -24.5q66 0 129 34l26 -72q-34 -18 -76.5 -29t-90.5 -11q-54 0 -90 14t-58.5 36t-32 49.5t-9.5 54.5q0 33 12.5 59t31.5 49.5t40.5 44.5t40.5 44.5t31.5 49.5t12.5 59v9.5t-1 9.5h78q4 -20 4 -39q0 -32 -11.5 -58t-28 -48.5t-36.5 -42.5
t-36.5 -40t-28 -41t-11.5 -45zM163 453q0 27 18 47t49 20t49 -20t18 -47t-18 -47t-49 -20t-49 20t-18 47z" />
    <glyph glyph-name="Agrave" unicode="&#xc0;" horiz-adv-x="663" 
d="M549 0l-32 88.5l-31 88.5h-314l-63 -177h-101l75 203.5l68.5 177.5l66.5 160.5t69 151.5h89q36 -75 69 -151.5l66.5 -160.5l68.5 -177.5l75 -203.5h-106zM458 257l-63.5 168.5t-65.5 156.5q-35 -75 -66.5 -156.5l-62.5 -168.5h258zM271 932l128 -154l-47 -42l-141 137z
" />
    <glyph glyph-name="Aacute" unicode="&#xc1;" horiz-adv-x="663" 
d="M549 0l-32 88.5l-31 88.5h-314l-63 -177h-101l75 203.5l68.5 177.5l66.5 160.5t69 151.5h89q36 -75 69 -151.5l66.5 -160.5l68.5 -177.5l75 -203.5h-106zM458 257l-63.5 168.5t-65.5 156.5q-35 -75 -66.5 -156.5l-62.5 -168.5h258zM457 873l-141 -137l-47 42l128 154z
" />
    <glyph glyph-name="Acircumflex" unicode="&#xc2;" horiz-adv-x="663" 
d="M549 0l-32 88.5l-31 88.5h-314l-63 -177h-101l75 203.5l68.5 177.5l66.5 160.5t69 151.5h89q36 -75 69 -151.5l66.5 -160.5l68.5 -177.5l75 -203.5h-106zM458 257l-63.5 168.5t-65.5 156.5q-35 -75 -66.5 -156.5l-62.5 -168.5h258zM331 925l136 -143l-39 -44l-97 88
l-97 -88l-39 44z" />
    <glyph glyph-name="Atilde" unicode="&#xc3;" horiz-adv-x="663" 
d="M549 0l-32 88.5l-31 88.5h-314l-63 -177h-101l75 203.5l68.5 177.5l66.5 160.5t69 151.5h89q36 -75 69 -151.5l66.5 -160.5l68.5 -177.5l75 -203.5h-106zM458 257l-63.5 168.5t-65.5 156.5q-35 -75 -66.5 -156.5l-62.5 -168.5h258zM496 867q-5 -12 -13.5 -28t-21.5 -29.5
t-30.5 -23t-38.5 -9.5q-20 0 -37.5 7t-33.5 15q-17 8 -29 12t-23 4q-17 0 -31.5 -14t-22.5 -30l-48 24q4 12 13 28t22 29.5t30.5 23t38.5 9.5q20 0 37.5 -7t33.5 -15q17 -8 29 -12t23 -4q17 0 31.5 14t22.5 30z" />
    <glyph glyph-name="Adieresis" unicode="&#xc4;" horiz-adv-x="663" 
d="M549 0l-32 88.5l-31 88.5h-314l-63 -177h-101l75 203.5l68.5 177.5l66.5 160.5t69 151.5h89q36 -75 69 -151.5l66.5 -160.5l68.5 -177.5l75 -203.5h-106zM458 257l-63.5 168.5t-65.5 156.5q-35 -75 -66.5 -156.5l-62.5 -168.5h258zM236 772q-23 0 -40.5 16.5t-17.5 42.5
t17.5 42.5t40.5 16.5t40.5 -16.5t17.5 -42.5t-17.5 -42.5t-40.5 -16.5zM426 772q-23 0 -40.5 16.5t-17.5 42.5t17.5 42.5t40.5 16.5t40.5 -16.5t17.5 -42.5t-17.5 -42.5t-40.5 -16.5z" />
    <glyph glyph-name="Aring" unicode="&#xc5;" horiz-adv-x="663" 
d="M172 178l-63 -178h-101l70 190.5l64.5 168l62 151.5l63.5 143q-19 14 -30 35t-11 49q0 24 8.5 42.5t22.5 32t32.5 20.5t39.5 7t39.5 -7t32.5 -20.5t22.5 -32t8.5 -42.5q0 -27 -11 -47.5t-29 -34.5l64 -143.5l62.5 -152l64.5 -168l71 -191.5h-106q-17 45 -32 89l-31 89
h-314zM458 257l-63.5 168.5t-65.5 156.5q-35 -75 -66.5 -156l-62.5 -169h258zM383 737q0 26 -15.5 40.5t-37.5 14.5t-37.5 -14.5t-15.5 -40.5t15.5 -40.5t37.5 -14.5t37.5 14.5t15.5 40.5z" />
    <glyph glyph-name="AE" unicode="&#xc6;" horiz-adv-x="935" 
d="M873 612h-301v-209h265v-79h-265v-243h326v-81h-422v178h-273l-47.5 -88.5l-45.5 -89.5h-104l111.5 203.5l106.5 180.5l102.5 161.5l100.5 147.5h446v-81zM476 617q-53 -72 -110 -163l-118 -197h228v360z" />
    <glyph glyph-name="Ccedilla" unicode="&#xc7;" horiz-adv-x="620" 
d="M330 -11q-62 8 -112 35.5t-85.5 73t-55 108t-19.5 141.5q0 87 26.5 154.5t71.5 113.5t105 70t128 24q43 0 77.5 -6t60 -14t41.5 -16t22 -12l-28 -80q-9 6 -26 13t-38.5 14t-47 11.5t-51.5 4.5q-55 0 -99 -19t-75 -55t-47.5 -87.5t-16.5 -115.5q0 -62 14.5 -113
t43.5 -87.5t72.5 -56.5t101.5 -20q67 0 111 14t66 25l25 -80q-14 -11 -67.5 -26.5t-135.5 -17.5q-3 -6 -5.5 -11.5t-4.5 -10.5q29 -14 42 -30.5t13 -48.5q0 -11 -5 -24t-17 -24t-32 -18t-49 -7q-26 0 -47.5 4t-34.5 9l11 57q12 -4 25.5 -7t30.5 -3q36 0 36 23q0 11 -11 18.5
t-31 15.5l-7 3q4 12 10.5 28t13.5 30z" />
    <glyph glyph-name="Egrave" unicode="&#xc8;" horiz-adv-x="571" 
d="M86 0v693h423v-83h-326v-206h290v-81h-290v-240h351v-83h-448zM260 932l128 -154l-47 -42l-141 137z" />
    <glyph glyph-name="Eacute" unicode="&#xc9;" horiz-adv-x="571" 
d="M86 0v693h423v-83h-326v-206h290v-81h-290v-240h351v-83h-448zM441 873l-141 -137l-47 42l128 154z" />
    <glyph glyph-name="Ecircumflex" unicode="&#xca;" horiz-adv-x="571" 
d="M86 0v693h423v-83h-326v-206h290v-81h-290v-240h351v-83h-448zM297 925l136 -143l-39 -44l-97 88l-97 -88l-39 44z" />
    <glyph glyph-name="Edieresis" unicode="&#xcb;" horiz-adv-x="571" 
d="M86 0v693h423v-83h-326v-206h290v-81h-290v-240h351v-83h-448zM202 772q-23 0 -40.5 16.5t-17.5 42.5t17.5 42.5t40.5 16.5t40.5 -16.5t17.5 -42.5t-17.5 -42.5t-40.5 -16.5zM392 772q-23 0 -40.5 16.5t-17.5 42.5t17.5 42.5t40.5 16.5t40.5 -16.5t17.5 -42.5
t-17.5 -42.5t-40.5 -16.5z" />
    <glyph glyph-name="Igrave" unicode="&#xcc;" horiz-adv-x="269" 
d="M86 693h97v-693h-97v693zM75 932l128 -154l-47 -42l-141 137z" />
    <glyph glyph-name="Iacute" unicode="&#xcd;" horiz-adv-x="269" 
d="M86 693h97v-693h-97v693zM256 873l-141 -137l-47 42l128 154z" />
    <glyph glyph-name="Icircumflex" unicode="&#xce;" horiz-adv-x="269" 
d="M86 693h97v-693h-97v693zM135 925l136 -143l-39 -44l-97 88l-97 -88l-39 44z" />
    <glyph glyph-name="Idieresis" unicode="&#xcf;" horiz-adv-x="269" 
d="M86 693h97v-693h-97v693zM40 772q-23 0 -40.5 16.5t-17.5 42.5t17.5 42.5t40.5 16.5t40.5 -16.5t17.5 -42.5t-17.5 -42.5t-40.5 -16.5zM230 772q-23 0 -40.5 16.5t-17.5 42.5t17.5 42.5t40.5 16.5t40.5 -16.5t17.5 -42.5t-17.5 -42.5t-40.5 -16.5z" />
    <glyph glyph-name="Eth" unicode="&#xd0;" horiz-adv-x="726" 
d="M668 347q0 -90 -28 -156.5t-79 -110t-122 -65t-156 -21.5q-42 0 -92.5 3.5t-91.5 13.5v313h-80v75h80v284q41 10 91.5 13.5t92.5 3.5q85 0 156 -21.5t122 -65t79 -110t28 -156.5zM291 79q138 0 206 70.5t68 197.5t-68 197.5t-206 70.5q-41 0 -63.5 -1t-31.5 -2v-213h130
v-75h-130v-242q9 -1 31.5 -2t63.5 -1z" />
    <glyph glyph-name="Ntilde" unicode="&#xd1;" horiz-adv-x="728" 
d="M561 0l-50.5 83l-61.5 95.5l-68.5 100.5l-70.5 98.5l-68 89.5t-61 74v-541h-95v693h77q47 -50 100.5 -116.5l106 -137l99 -138.5t78.5 -121v513h95v-693h-81zM529 867q-5 -12 -13.5 -28t-21.5 -29.5t-30.5 -23t-38.5 -9.5q-20 0 -37.5 7t-33.5 15q-17 8 -29 12t-23 4
q-17 0 -31.5 -14t-22.5 -30l-48 24q4 12 13 28t22 29.5t30.5 23t38.5 9.5q20 0 37.5 -7t33.5 -15q17 -8 29 -12t23 -4q17 0 31.5 14t22.5 30z" />
    <glyph glyph-name="Ograve" unicode="&#xd2;" horiz-adv-x="778" 
d="M58 347q0 89 26.5 157t72 113.5t106 68.5t128.5 23q67 0 126.5 -23t104.5 -68.5t71.5 -113.5t26.5 -157t-26.5 -157t-71.5 -113.5t-104.5 -68.5t-126.5 -23q-68 0 -128.5 23t-106 68.5t-72 113.5t-26.5 157zM160 347q0 -63 16 -114.5t45.5 -87.5t72 -55.5t95.5 -19.5
t95 19.5t71.5 55.5t45.5 87.5t16 114.5t-16 114.5t-45.5 87.5t-71.5 55.5t-95 19.5t-95.5 -19.5t-72 -55.5t-45.5 -87.5t-16 -114.5zM329 932l128 -154l-47 -42l-141 137z" />
    <glyph glyph-name="Oacute" unicode="&#xd3;" horiz-adv-x="778" 
d="M58 347q0 89 26.5 157t72 113.5t106 68.5t128.5 23q67 0 126.5 -23t104.5 -68.5t71.5 -113.5t26.5 -157t-26.5 -157t-71.5 -113.5t-104.5 -68.5t-126.5 -23q-68 0 -128.5 23t-106 68.5t-72 113.5t-26.5 157zM160 347q0 -63 16 -114.5t45.5 -87.5t72 -55.5t95.5 -19.5
t95 19.5t71.5 55.5t45.5 87.5t16 114.5t-16 114.5t-45.5 87.5t-71.5 55.5t-95 19.5t-95.5 -19.5t-72 -55.5t-45.5 -87.5t-16 -114.5zM510 873l-141 -137l-47 42l128 154z" />
    <glyph glyph-name="Ocircumflex" unicode="&#xd4;" horiz-adv-x="778" 
d="M58 347q0 89 26.5 157t72 113.5t106 68.5t128.5 23q67 0 126.5 -23t104.5 -68.5t71.5 -113.5t26.5 -157t-26.5 -157t-71.5 -113.5t-104.5 -68.5t-126.5 -23q-68 0 -128.5 23t-106 68.5t-72 113.5t-26.5 157zM160 347q0 -63 16 -114.5t45.5 -87.5t72 -55.5t95.5 -19.5
t95 19.5t71.5 55.5t45.5 87.5t16 114.5t-16 114.5t-45.5 87.5t-71.5 55.5t-95 19.5t-95.5 -19.5t-72 -55.5t-45.5 -87.5t-16 -114.5zM389 925l136 -143l-39 -44l-97 88l-97 -88l-39 44z" />
    <glyph glyph-name="Otilde" unicode="&#xd5;" horiz-adv-x="778" 
d="M58 347q0 89 26.5 157t72 113.5t106 68.5t128.5 23q67 0 126.5 -23t104.5 -68.5t71.5 -113.5t26.5 -157t-26.5 -157t-71.5 -113.5t-104.5 -68.5t-126.5 -23q-68 0 -128.5 23t-106 68.5t-72 113.5t-26.5 157zM160 347q0 -63 16 -114.5t45.5 -87.5t72 -55.5t95.5 -19.5
t95 19.5t71.5 55.5t45.5 87.5t16 114.5t-16 114.5t-45.5 87.5t-71.5 55.5t-95 19.5t-95.5 -19.5t-72 -55.5t-45.5 -87.5t-16 -114.5zM554 867q-5 -12 -13.5 -28t-21.5 -29.5t-30.5 -23t-38.5 -9.5q-20 0 -37.5 7t-33.5 15q-17 8 -29 12t-23 4q-17 0 -31.5 -14t-22.5 -30
l-48 24q4 12 13 28t22 29.5t30.5 23t38.5 9.5q20 0 37.5 -7t33.5 -15q17 -8 29 -12t23 -4q17 0 31.5 14t22.5 30z" />
    <glyph glyph-name="Odieresis" unicode="&#xd6;" horiz-adv-x="778" 
d="M58 347q0 89 26.5 157t72 113.5t106 68.5t128.5 23q67 0 126.5 -23t104.5 -68.5t71.5 -113.5t26.5 -157t-26.5 -157t-71.5 -113.5t-104.5 -68.5t-126.5 -23q-68 0 -128.5 23t-106 68.5t-72 113.5t-26.5 157zM160 347q0 -63 16 -114.5t45.5 -87.5t72 -55.5t95.5 -19.5
t95 19.5t71.5 55.5t45.5 87.5t16 114.5t-16 114.5t-45.5 87.5t-71.5 55.5t-95 19.5t-95.5 -19.5t-72 -55.5t-45.5 -87.5t-16 -114.5zM294 772q-23 0 -40.5 16.5t-17.5 42.5t17.5 42.5t40.5 16.5t40.5 -16.5t17.5 -42.5t-17.5 -42.5t-40.5 -16.5zM484 772q-23 0 -40.5 16.5
t-17.5 42.5t17.5 42.5t40.5 16.5t40.5 -16.5t17.5 -42.5t-17.5 -42.5t-40.5 -16.5z" />
    <glyph glyph-name="multiply" unicode="&#xd7;" horiz-adv-x="564" 
d="M428 97l-146 146l-146 -146l-56 56l146 146l-146 146l56 56l146 -146l146 146l56 -56l-146 -146l146 -146z" />
    <glyph glyph-name="Oslash" unicode="&#xd8;" horiz-adv-x="778" 
d="M58 347q0 89 26.5 157t72 113.5t106 68.5t128.5 23q106 0 188 -56l59 77l62 -46l-64 -83q39 -45 61.5 -108.5t22.5 -145.5q0 -89 -26.5 -157t-71.5 -113.5t-104.5 -68.5t-126.5 -23q-53 0 -100.5 13.5t-88.5 40.5l-58 -75l-62 46l62 80q-40 45 -63 109t-23 148zM160 347
q0 -109 44 -179l319 413q-55 43 -134 43q-53 0 -95.5 -19.5t-72 -55.5t-45.5 -87.5t-16 -114.5zM389 70q53 0 95 19.5t71.5 55.5t45.5 87.5t16 114.5q0 53 -11 96.5t-31 78.5l-318 -411q53 -41 132 -41z" />
    <glyph glyph-name="Ugrave" unicode="&#xd9;" horiz-adv-x="688" 
d="M344 -15q-68 0 -118 21t-82 57.5t-47.5 86.5t-15.5 108v435h97v-424q0 -104 46 -151t120 -47q37 0 67.5 11.5t52.5 35.5t34 61.5t12 89.5v424h97v-435q0 -58 -15.5 -108t-48 -86.5t-82 -57.5t-117.5 -21zM284 932l128 -154l-47 -42l-141 137z" />
    <glyph glyph-name="Uacute" unicode="&#xda;" horiz-adv-x="688" 
d="M344 -15q-68 0 -118 21t-82 57.5t-47.5 86.5t-15.5 108v435h97v-424q0 -104 46 -151t120 -47q37 0 67.5 11.5t52.5 35.5t34 61.5t12 89.5v424h97v-435q0 -58 -15.5 -108t-48 -86.5t-82 -57.5t-117.5 -21zM465 873l-141 -137l-47 42l128 154z" />
    <glyph glyph-name="Ucircumflex" unicode="&#xdb;" horiz-adv-x="688" 
d="M344 -15q-68 0 -118 21t-82 57.5t-47.5 86.5t-15.5 108v435h97v-424q0 -104 46 -151t120 -47q37 0 67.5 11.5t52.5 35.5t34 61.5t12 89.5v424h97v-435q0 -58 -15.5 -108t-48 -86.5t-82 -57.5t-117.5 -21zM344 925l136 -143l-39 -44l-97 88l-97 -88l-39 44z" />
    <glyph glyph-name="Udieresis" unicode="&#xdc;" horiz-adv-x="688" 
d="M344 -15q-68 0 -118 21t-82 57.5t-47.5 86.5t-15.5 108v435h97v-424q0 -104 46 -151t120 -47q37 0 67.5 11.5t52.5 35.5t34 61.5t12 89.5v424h97v-435q0 -58 -15.5 -108t-48 -86.5t-82 -57.5t-117.5 -21zM249 772q-23 0 -40.5 16.5t-17.5 42.5t17.5 42.5t40.5 16.5
t40.5 -16.5t17.5 -42.5t-17.5 -42.5t-40.5 -16.5zM439 772q-23 0 -40.5 16.5t-17.5 42.5t17.5 42.5t40.5 16.5t40.5 -16.5t17.5 -42.5t-17.5 -42.5t-40.5 -16.5z" />
    <glyph glyph-name="Yacute" unicode="&#xdd;" horiz-adv-x="598" 
d="M251 0v278q-69 107 -130 211l-115 204h114q38 -82 85 -166.5t97 -162.5q49 78 96 162.5t86 166.5h108l-115 -203.5l-129 -209.5v-280h-97zM421 873l-141 -137l-47 42l128 154z" />
    <glyph glyph-name="Thorn" unicode="&#xde;" horiz-adv-x="609" 
d="M183 222h73q50 0 90 6.5t67.5 22.5t42.5 43t15 69q0 40 -15.5 66.5t-43.5 42t-67 21.5t-86 6h-37.5t-38.5 -2v-275zM183 693v-113q19 2 39.5 2.5t39.5 0.5q311 0 311 -221q0 -60 -21.5 -101.5t-62 -68t-98.5 -38.5t-131 -12h-77v-142h-97v693h97z" />
    <glyph glyph-name="germandbls" unicode="&#xdf;" horiz-adv-x="623" 
d="M498 616q0 -25 -7 -44.5t-17.5 -36t-23 -30.5l-23.5 -26l-39 -41.5t-16 -41.5q0 -15 7.5 -26t19.5 -19t26.5 -15l29.5 -14q27 -13 50.5 -28t41 -34.5t27 -46t9.5 -63.5q0 -78 -48.5 -120t-150.5 -42q-21 0 -42 3t-39 7.5t-31.5 9.5t-19.5 8l16 81q6 -3 18.5 -8t29 -10
t36 -8.5t39.5 -3.5q50 0 74 22t24 59q0 39 -23 64t-80 51q-33 15 -54.5 28.5t-33.5 27.5t-17 29t-5 35q0 40 22 67t47 53q10 10 20.5 22t19.5 24.5t14.5 25.5t5.5 27q0 44 -26 68.5t-78 24.5q-67 0 -97.5 -38t-30.5 -105v-552h-93v554q0 50 14 91t41 70t67 45t92 16
q54 0 93 -12t63.5 -33.5t36 -51t11.5 -63.5z" />
    <glyph glyph-name="agrave" unicode="&#xe0;" horiz-adv-x="522" 
d="M256 67q33 0 58.5 1.5t42.5 5.5v155q-10 5 -32.5 8.5t-54.5 3.5q-21 0 -44.5 -3t-43 -12.5t-32.5 -26t-13 -43.5q0 -50 32 -69.5t87 -19.5zM248 533q56 0 94.5 -14.5t62 -41t33.5 -63t10 -80.5v-325l-33.5 -5.5t-48.5 -6.5t-58.5 -5.5t-62.5 -2.5q-44 0 -81 9t-64 28.5
t-42 51.5t-15 77q0 43 17.5 74t47.5 50t70 28t84 9q14 0 29 -1.5t28.5 -4l23.5 -4.5t14 -3v26q0 23 -5 45.5t-18 40t-35.5 28t-58.5 10.5q-46 0 -80.5 -6.5t-51.5 -13.5l-11 77q18 8 60 15.5t91 7.5zM203 776l128 -154l-47 -42l-141 137z" />
    <glyph glyph-name="aacute" unicode="&#xe1;" horiz-adv-x="522" 
d="M256 67q33 0 58.5 1.5t42.5 5.5v155q-10 5 -32.5 8.5t-54.5 3.5q-21 0 -44.5 -3t-43 -12.5t-32.5 -26t-13 -43.5q0 -50 32 -69.5t87 -19.5zM248 533q56 0 94.5 -14.5t62 -41t33.5 -63t10 -80.5v-325l-33.5 -5.5t-48.5 -6.5t-58.5 -5.5t-62.5 -2.5q-44 0 -81 9t-64 28.5
t-42 51.5t-15 77q0 43 17.5 74t47.5 50t70 28t84 9q14 0 29 -1.5t28.5 -4l23.5 -4.5t14 -3v26q0 23 -5 45.5t-18 40t-35.5 28t-58.5 10.5q-46 0 -80.5 -6.5t-51.5 -13.5l-11 77q18 8 60 15.5t91 7.5zM384 717l-141 -137l-47 42l128 154z" />
    <glyph glyph-name="acircumflex" unicode="&#xe2;" horiz-adv-x="522" 
d="M256 67q33 0 58.5 1.5t42.5 5.5v155q-10 5 -32.5 8.5t-54.5 3.5q-21 0 -44.5 -3t-43 -12.5t-32.5 -26t-13 -43.5q0 -50 32 -69.5t87 -19.5zM248 533q56 0 94.5 -14.5t62 -41t33.5 -63t10 -80.5v-325l-33.5 -5.5t-48.5 -6.5t-58.5 -5.5t-62.5 -2.5q-44 0 -81 9t-64 28.5
t-42 51.5t-15 77q0 43 17.5 74t47.5 50t70 28t84 9q14 0 29 -1.5t28.5 -4l23.5 -4.5t14 -3v26q0 23 -5 45.5t-18 40t-35.5 28t-58.5 10.5q-46 0 -80.5 -6.5t-51.5 -13.5l-11 77q18 8 60 15.5t91 7.5zM263 769l136 -143l-39 -44l-97 88l-97 -88l-39 44z" />
    <glyph glyph-name="atilde" unicode="&#xe3;" horiz-adv-x="522" 
d="M256 67q33 0 58.5 1.5t42.5 5.5v155q-10 5 -32.5 8.5t-54.5 3.5q-21 0 -44.5 -3t-43 -12.5t-32.5 -26t-13 -43.5q0 -50 32 -69.5t87 -19.5zM248 533q56 0 94.5 -14.5t62 -41t33.5 -63t10 -80.5v-325l-33.5 -5.5t-48.5 -6.5t-58.5 -5.5t-62.5 -2.5q-44 0 -81 9t-64 28.5
t-42 51.5t-15 77q0 43 17.5 74t47.5 50t70 28t84 9q14 0 29 -1.5t28.5 -4l23.5 -4.5t14 -3v26q0 23 -5 45.5t-18 40t-35.5 28t-58.5 10.5q-46 0 -80.5 -6.5t-51.5 -13.5l-11 77q18 8 60 15.5t91 7.5zM428 711q-5 -12 -13.5 -28t-21.5 -29.5t-30.5 -23t-38.5 -9.5
q-20 0 -37.5 7t-33.5 15q-17 8 -29 12t-23 4q-17 0 -31.5 -14t-22.5 -30l-48 24q4 12 13 28t22 29.5t30.5 23t38.5 9.5q20 0 37.5 -7t33.5 -15q17 -8 29 -12t23 -4q17 0 31.5 14t22.5 30z" />
    <glyph glyph-name="adieresis" unicode="&#xe4;" horiz-adv-x="522" 
d="M256 67q33 0 58.5 1.5t42.5 5.5v155q-10 5 -32.5 8.5t-54.5 3.5q-21 0 -44.5 -3t-43 -12.5t-32.5 -26t-13 -43.5q0 -50 32 -69.5t87 -19.5zM248 533q56 0 94.5 -14.5t62 -41t33.5 -63t10 -80.5v-325l-33.5 -5.5t-48.5 -6.5t-58.5 -5.5t-62.5 -2.5q-44 0 -81 9t-64 28.5
t-42 51.5t-15 77q0 43 17.5 74t47.5 50t70 28t84 9q14 0 29 -1.5t28.5 -4l23.5 -4.5t14 -3v26q0 23 -5 45.5t-18 40t-35.5 28t-58.5 10.5q-46 0 -80.5 -6.5t-51.5 -13.5l-11 77q18 8 60 15.5t91 7.5zM168 616q-23 0 -40.5 16.5t-17.5 42.5t17.5 42.5t40.5 16.5t40.5 -16.5
t17.5 -42.5t-17.5 -42.5t-40.5 -16.5zM358 616q-23 0 -40.5 16.5t-17.5 42.5t17.5 42.5t40.5 16.5t40.5 -16.5t17.5 -42.5t-17.5 -42.5t-40.5 -16.5z" />
    <glyph glyph-name="aring" unicode="&#xe5;" horiz-adv-x="522" 
d="M256 67q33 0 58.5 1.5t42.5 5.5v155q-10 5 -32.5 8.5t-54.5 3.5q-21 0 -44.5 -3t-43 -12.5t-32.5 -26t-13 -43.5q0 -50 32 -69.5t87 -19.5zM248 533q56 0 94.5 -14.5t62 -41t33.5 -63t10 -80.5v-325l-33.5 -5.5t-48.5 -6.5t-58.5 -5.5t-62.5 -2.5q-44 0 -81 9t-64 28.5
t-42 51.5t-15 77q0 43 17.5 74t47.5 50t70 28t84 9q14 0 29 -1.5t28.5 -4l23.5 -4.5t14 -3v26q0 23 -5 45.5t-18 40t-35.5 28t-58.5 10.5q-46 0 -80.5 -6.5t-51.5 -13.5l-11 77q18 8 60 15.5t91 7.5zM366 677q0 -24 -8.5 -42.5t-22.5 -32t-32.5 -20.5t-39.5 -7t-39.5 7
t-32.5 20.5t-22.5 32t-8.5 42.5t8.5 42.5t22.5 32t32.5 20.5t39.5 7t39.5 -7t32.5 -20.5t22.5 -32t8.5 -42.5zM316 677q0 26 -15.5 40.5t-37.5 14.5t-37.5 -14.5t-15.5 -40.5t15.5 -40.5t37.5 -14.5t37.5 14.5t15.5 40.5z" />
    <glyph glyph-name="ae" unicode="&#xe6;" horiz-adv-x="859" 
d="M613 -12q-57 0 -99.5 13.5t-74.5 39.5q-10 -7 -26.5 -16t-39.5 -17.5t-51.5 -14t-62.5 -5.5q-50 0 -89.5 9t-67.5 29t-43 52t-15 77q0 43 17.5 74t47.5 50t70 28t84 9q14 0 29 -1.5t28 -4l23 -4.5t14 -3v26q0 23 -5 45.5t-18 40t-35.5 28t-58.5 10.5q-46 0 -80.5 -6.5
t-51.5 -13.5l-11 77q18 8 59.5 15.5t89.5 7.5q69 0 109.5 -23.5t60.5 -65.5q33 45 78 67t94 22q104 0 160.5 -66t56.5 -199q0 -8 -0.5 -13.5t-0.5 -10.5v-9h-356q6 -80 47.5 -122.5t127.5 -42.5q49 0 82.5 8.5t50.5 16.5l13 -78q-17 -9 -59.5 -19t-96.5 -10zM261 67
q52 0 82 11.5t46 22.5q-15 28 -23.5 60t-9.5 68q-11 5 -32 8.5t-53 3.5q-21 0 -44.5 -3t-43 -12.5t-32.5 -26t-13 -43.5q0 -51 32.5 -70t90.5 -19zM708 310q1 63 -31.5 103.5t-89.5 40.5q-32 0 -56.5 -12.5t-41 -32.5t-26.5 -46t-13 -53h258z" />
    <glyph glyph-name="ccedilla" unicode="&#xe7;" horiz-adv-x="465" 
d="M318 -12l-11 -25q29 -14 42 -30.5t13 -48.5q0 -11 -5 -24t-17 -24t-32 -18t-49 -7q-26 0 -47.5 4t-34.5 9l11 57q12 -4 25.5 -7t30.5 -3q36 0 36 23q0 11 -11 18.5t-31 15.5l-7 3q4 12 11 29t15 32q-51 7 -89.5 29.5t-64.5 57.5t-39 80.5t-13 99.5q0 60 17.5 110
t49.5 86.5t78.5 57t103.5 20.5q35 0 70 -6t67 -19l-21 -79q-21 10 -48.5 16t-58.5 6q-78 0 -119.5 -49t-41.5 -143q0 -42 9.5 -77t30 -60t52.5 -38.5t78 -13.5q37 0 67 7t47 15l13 -78q-8 -4 -21.5 -8.5t-30.5 -8t-36.5 -6t-38.5 -3.5z" />
    <glyph glyph-name="egrave" unicode="&#xe8;" horiz-adv-x="559" 
d="M51 259q0 69 20 120.5t53 85.5t76 51t88 17q105 0 161 -65.5t56 -199.5v-15.5t-1 -17.5h-356q6 -81 47 -123t128 -42q49 0 82.5 8.5t50.5 16.5l13 -78q-17 -9 -59.5 -19t-96.5 -10q-68 0 -117.5 20.5t-81.5 56.5t-47.5 85.5t-15.5 108.5zM408 310q1 63 -31.5 103.5
t-89.5 40.5q-32 0 -56.5 -12.5t-41.5 -32.5t-26.5 -46t-12.5 -53h258zM226 776l128 -154l-47 -42l-141 137z" />
    <glyph glyph-name="eacute" unicode="&#xe9;" horiz-adv-x="559" 
d="M51 259q0 69 20 120.5t53 85.5t76 51t88 17q105 0 161 -65.5t56 -199.5v-15.5t-1 -17.5h-356q6 -81 47 -123t128 -42q49 0 82.5 8.5t50.5 16.5l13 -78q-17 -9 -59.5 -19t-96.5 -10q-68 0 -117.5 20.5t-81.5 56.5t-47.5 85.5t-15.5 108.5zM408 310q1 63 -31.5 103.5
t-89.5 40.5q-32 0 -56.5 -12.5t-41.5 -32.5t-26.5 -46t-12.5 -53h258zM407 717l-141 -137l-47 42l128 154z" />
    <glyph glyph-name="ecircumflex" unicode="&#xea;" horiz-adv-x="559" 
d="M51 259q0 69 20 120.5t53 85.5t76 51t88 17q105 0 161 -65.5t56 -199.5v-15.5t-1 -17.5h-356q6 -81 47 -123t128 -42q49 0 82.5 8.5t50.5 16.5l13 -78q-17 -9 -59.5 -19t-96.5 -10q-68 0 -117.5 20.5t-81.5 56.5t-47.5 85.5t-15.5 108.5zM408 310q1 63 -31.5 103.5
t-89.5 40.5q-32 0 -56.5 -12.5t-41.5 -32.5t-26.5 -46t-12.5 -53h258zM286 769l136 -143l-39 -44l-97 88l-97 -88l-39 44z" />
    <glyph glyph-name="edieresis" unicode="&#xeb;" horiz-adv-x="559" 
d="M51 259q0 69 20 120.5t53 85.5t76 51t88 17q105 0 161 -65.5t56 -199.5v-15.5t-1 -17.5h-356q6 -81 47 -123t128 -42q49 0 82.5 8.5t50.5 16.5l13 -78q-17 -9 -59.5 -19t-96.5 -10q-68 0 -117.5 20.5t-81.5 56.5t-47.5 85.5t-15.5 108.5zM408 310q1 63 -31.5 103.5
t-89.5 40.5q-32 0 -56.5 -12.5t-41.5 -32.5t-26.5 -46t-12.5 -53h258zM191 616q-23 0 -40.5 16.5t-17.5 42.5t17.5 42.5t40.5 16.5t40.5 -16.5t17.5 -42.5t-17.5 -42.5t-40.5 -16.5zM381 616q-23 0 -40.5 16.5t-17.5 42.5t17.5 42.5t40.5 16.5t40.5 -16.5t17.5 -42.5
t-17.5 -42.5t-40.5 -16.5z" />
    <glyph glyph-name="igrave" unicode="&#xec;" horiz-adv-x="253" 
d="M173 0h-93v520h93v-520zM67 776l128 -154l-47 -42l-141 137z" />
    <glyph glyph-name="iacute" unicode="&#xed;" horiz-adv-x="253" 
d="M173 0h-93v520h93v-520zM248 717l-141 -137l-47 42l128 154z" />
    <glyph glyph-name="icircumflex" unicode="&#xee;" horiz-adv-x="253" 
d="M173 0h-93v520h93v-520zM127 769l136 -143l-39 -44l-97 88l-97 -88l-39 44z" />
    <glyph glyph-name="idieresis" unicode="&#xef;" horiz-adv-x="253" 
d="M173 0h-93v520h93v-520zM32 616q-23 0 -40.5 16.5t-17.5 42.5t17.5 42.5t40.5 16.5t40.5 -16.5t17.5 -42.5t-17.5 -42.5t-40.5 -16.5zM222 616q-23 0 -40.5 16.5t-17.5 42.5t17.5 42.5t40.5 16.5t40.5 -16.5t17.5 -42.5t-17.5 -42.5t-40.5 -16.5z" />
    <glyph glyph-name="eth" unicode="&#xf0;" horiz-adv-x="589" 
d="M564 657l-107 -37q32 -54 54 -126t22 -166q0 -66 -11.5 -127.5t-39.5 -109t-75.5 -76t-119.5 -28.5q-59 0 -103.5 22t-74 58t-44 83t-14.5 98q0 56 16.5 101t46.5 76.5t73.5 48t97.5 16.5q51 0 89 -16t56 -30q-12 80 -55 148l-120 -41l-23 63l102 35q-33 39 -84 76l59 51
q22 -14 50.5 -38.5t57.5 -60.5l124 43zM438 325q0 8 -0.5 16t-0.5 16q-34 30 -71 41t-69 11q-41 0 -69.5 -12.5t-46.5 -34.5t-26.5 -51t-8.5 -63q0 -36 9 -68.5t26.5 -57t44 -39t61.5 -14.5q46 0 75.5 22t46 58t23 82t6.5 94z" />
    <glyph glyph-name="ntilde" unicode="&#xf1;" 
d="M80 505q32 8 85 17t122 9q62 0 103 -17.5t65.5 -49t34.5 -75.5t10 -97v-292h-93v272q0 48 -6.5 82t-21.5 55t-40 30.5t-62 9.5q-15 0 -31 -1t-30.5 -2.5t-26 -3.5t-16.5 -3v-439h-93v505zM455 711q-5 -12 -13.5 -28t-21.5 -29.5t-30.5 -23t-38.5 -9.5q-20 0 -37.5 7
t-33.5 15q-17 8 -29 12t-23 4q-17 0 -31.5 -14t-22.5 -30l-48 24q4 12 13 28t22 29.5t30.5 23t38.5 9.5q20 0 37.5 -7t33.5 -15q17 -8 29 -12t23 -4q17 0 31.5 14t22.5 30z" />
    <glyph glyph-name="ograve" unicode="&#xf2;" horiz-adv-x="590" 
d="M539 260q0 -62 -18 -112t-50.5 -86t-77.5 -55.5t-98 -19.5t-98 19.5t-77.5 55.5t-50.5 86t-18 112q0 61 18 111.5t50.5 86.5t77.5 55.5t98 19.5t98 -19.5t77.5 -55.5t50.5 -86.5t18 -111.5zM442 260q0 88 -39.5 139.5t-107.5 51.5t-107.5 -51.5t-39.5 -139.5t39.5 -139.5
t107.5 -51.5t107.5 51.5t39.5 139.5zM235 776l128 -154l-47 -42l-141 137z" />
    <glyph glyph-name="oacute" unicode="&#xf3;" horiz-adv-x="590" 
d="M539 260q0 -62 -18 -112t-50.5 -86t-77.5 -55.5t-98 -19.5t-98 19.5t-77.5 55.5t-50.5 86t-18 112q0 61 18 111.5t50.5 86.5t77.5 55.5t98 19.5t98 -19.5t77.5 -55.5t50.5 -86.5t18 -111.5zM442 260q0 88 -39.5 139.5t-107.5 51.5t-107.5 -51.5t-39.5 -139.5t39.5 -139.5
t107.5 -51.5t107.5 51.5t39.5 139.5zM416 717l-141 -137l-47 42l128 154z" />
    <glyph glyph-name="ocircumflex" unicode="&#xf4;" horiz-adv-x="590" 
d="M539 260q0 -62 -18 -112t-50.5 -86t-77.5 -55.5t-98 -19.5t-98 19.5t-77.5 55.5t-50.5 86t-18 112q0 61 18 111.5t50.5 86.5t77.5 55.5t98 19.5t98 -19.5t77.5 -55.5t50.5 -86.5t18 -111.5zM442 260q0 88 -39.5 139.5t-107.5 51.5t-107.5 -51.5t-39.5 -139.5t39.5 -139.5
t107.5 -51.5t107.5 51.5t39.5 139.5zM295 769l136 -143l-39 -44l-97 88l-97 -88l-39 44z" />
    <glyph glyph-name="otilde" unicode="&#xf5;" horiz-adv-x="590" 
d="M539 260q0 -62 -18 -112t-50.5 -86t-77.5 -55.5t-98 -19.5t-98 19.5t-77.5 55.5t-50.5 86t-18 112q0 61 18 111.5t50.5 86.5t77.5 55.5t98 19.5t98 -19.5t77.5 -55.5t50.5 -86.5t18 -111.5zM442 260q0 88 -39.5 139.5t-107.5 51.5t-107.5 -51.5t-39.5 -139.5t39.5 -139.5
t107.5 -51.5t107.5 51.5t39.5 139.5zM460 711q-5 -12 -13.5 -28t-21.5 -29.5t-30.5 -23t-38.5 -9.5q-20 0 -37.5 7t-33.5 15q-17 8 -29 12t-23 4q-17 0 -31.5 -14t-22.5 -30l-48 24q4 12 13 28t22 29.5t30.5 23t38.5 9.5q20 0 37.5 -7t33.5 -15q17 -8 29 -12t23 -4
q17 0 31.5 14t22.5 30z" />
    <glyph glyph-name="odieresis" unicode="&#xf6;" horiz-adv-x="590" 
d="M539 260q0 -62 -18 -112t-50.5 -86t-77.5 -55.5t-98 -19.5t-98 19.5t-77.5 55.5t-50.5 86t-18 112q0 61 18 111.5t50.5 86.5t77.5 55.5t98 19.5t98 -19.5t77.5 -55.5t50.5 -86.5t18 -111.5zM442 260q0 88 -39.5 139.5t-107.5 51.5t-107.5 -51.5t-39.5 -139.5t39.5 -139.5
t107.5 -51.5t107.5 51.5t39.5 139.5zM200 616q-23 0 -40.5 16.5t-17.5 42.5t17.5 42.5t40.5 16.5t40.5 -16.5t17.5 -42.5t-17.5 -42.5t-40.5 -16.5zM390 616q-23 0 -40.5 16.5t-17.5 42.5t17.5 42.5t40.5 16.5t40.5 -16.5t17.5 -42.5t-17.5 -42.5t-40.5 -16.5z" />
    <glyph glyph-name="divide" unicode="&#xf7;" horiz-adv-x="564" 
d="M282 45q-25 0 -42.5 16.5t-17.5 44.5t17.5 44.5t42.5 16.5t42.5 -16.5t17.5 -44.5t-17.5 -44.5t-42.5 -16.5zM282 431q-25 0 -42.5 16.5t-17.5 44.5t17.5 44.5t42.5 16.5t42.5 -16.5t17.5 -44.5t-17.5 -44.5t-42.5 -16.5zM53 339h458v-79h-458v79z" />
    <glyph glyph-name="oslash" unicode="&#xf8;" horiz-adv-x="590" 
d="M480 445q28 -35 43.5 -81.5t15.5 -103.5q0 -62 -18 -112t-50.5 -86t-77.5 -55.5t-98 -19.5q-79 0 -137 41l-49 -64l-53 40l54 70q-28 35 -43.5 82t-15.5 104q0 61 18 111.5t50.5 86.5t77.5 55.5t98 19.5q39 0 73.5 -11t63.5 -31l49 64l53 -40zM147 260q0 -65 21 -110
l212 274q-36 28 -85 28q-69 0 -108.5 -51.5t-39.5 -140.5zM443 260q0 62 -22 109l-211 -274q34 -27 85 -27q69 0 108.5 51.5t39.5 140.5z" />
    <glyph glyph-name="ugrave" unicode="&#xf9;" 
d="M494 15q-32 -8 -84.5 -17t-121.5 -9q-60 0 -101 17.5t-66 49.5t-36 75.5t-11 96.5v292h93v-272q0 -95 30 -136t101 -41q15 0 31 1t30 2.5t25.5 3t16.5 3.5v439h93v-505zM224 776l128 -154l-47 -42l-141 137z" />
    <glyph glyph-name="uacute" unicode="&#xfa;" 
d="M494 15q-32 -8 -84.5 -17t-121.5 -9q-60 0 -101 17.5t-66 49.5t-36 75.5t-11 96.5v292h93v-272q0 -95 30 -136t101 -41q15 0 31 1t30 2.5t25.5 3t16.5 3.5v439h93v-505zM405 717l-141 -137l-47 42l128 154z" />
    <glyph glyph-name="ucircumflex" unicode="&#xfb;" 
d="M494 15q-32 -8 -84.5 -17t-121.5 -9q-60 0 -101 17.5t-66 49.5t-36 75.5t-11 96.5v292h93v-272q0 -95 30 -136t101 -41q15 0 31 1t30 2.5t25.5 3t16.5 3.5v439h93v-505zM284 769l136 -143l-39 -44l-97 88l-97 -88l-39 44z" />
    <glyph glyph-name="udieresis" unicode="&#xfc;" 
d="M494 15q-32 -8 -84.5 -17t-121.5 -9q-60 0 -101 17.5t-66 49.5t-36 75.5t-11 96.5v292h93v-272q0 -95 30 -136t101 -41q15 0 31 1t30 2.5t25.5 3t16.5 3.5v439h93v-505zM189 616q-23 0 -40.5 16.5t-17.5 42.5t17.5 42.5t40.5 16.5t40.5 -16.5t17.5 -42.5t-17.5 -42.5
t-40.5 -16.5zM379 616q-23 0 -40.5 16.5t-17.5 42.5t17.5 42.5t40.5 16.5t40.5 -16.5t17.5 -42.5t-17.5 -42.5t-40.5 -16.5z" />
    <glyph glyph-name="yacute" unicode="&#xfd;" horiz-adv-x="497" 
d="M19 -97q11 -5 28.5 -9.5t34.5 -4.5q55 0 86 24.5t56 79.5q-63 120 -117.5 254.5t-90.5 272.5h100q11 -45 26.5 -97t34.5 -107t41 -110t46 -106q38 105 66 208t53 212h96q-36 -147 -80 -282.5t-95 -253.5q-20 -45 -41.5 -77.5t-47.5 -53.5t-58.5 -31t-73.5 -10
q-11 0 -23 1.5t-23.5 4t-21 5.5t-13.5 5zM382 717l-141 -137l-47 42l128 154z" />
    <glyph glyph-name="thorn" unicode="&#xfe;" horiz-adv-x="589" 
d="M441 259q0 91 -45 140.5t-120 49.5q-15 0 -31 -2t-30.5 -4.5t-25.5 -5.5t-16 -5v-322q17 -14 49 -27t70 -13q40 0 68.5 14.5t46.5 40t26 60t8 74.5zM538 259q0 -59 -15.5 -109t-45.5 -86t-73.5 -56t-99.5 -20q-45 0 -79.5 12t-51.5 23v-208h-93v945l93 16v-265
q26 9 54.5 14.5t54.5 5.5q57 0 104.5 -19t81 -54t52 -85.5t18.5 -113.5z" />
    <glyph glyph-name="ydieresis" unicode="&#xff;" horiz-adv-x="497" 
d="M19 -97q11 -5 28.5 -9.5t34.5 -4.5q55 0 86 24.5t56 79.5q-63 120 -117.5 254.5t-90.5 272.5h100q11 -45 26.5 -97t34.5 -107t41 -110t46 -106q38 105 66 208t53 212h96q-36 -147 -80 -282.5t-95 -253.5q-20 -45 -41.5 -77.5t-47.5 -53.5t-58.5 -31t-73.5 -10
q-11 0 -23 1.5t-23.5 4t-21 5.5t-13.5 5zM166 616q-23 0 -40.5 16.5t-17.5 42.5t17.5 42.5t40.5 16.5t40.5 -16.5t17.5 -42.5t-17.5 -42.5t-40.5 -16.5zM356 616q-23 0 -40.5 16.5t-17.5 42.5t17.5 42.5t40.5 16.5t40.5 -16.5t17.5 -42.5t-17.5 -42.5t-40.5 -16.5z" />
    <glyph glyph-name="Amacron" unicode="&#x100;" horiz-adv-x="663" 
d="M549 0l-32 88.5l-31 88.5h-314l-63 -177h-101l75 203.5l68.5 177.5l66.5 160.5t69 151.5h89q36 -75 69 -151.5l66.5 -160.5l68.5 -177.5l75 -203.5h-106zM458 257l-63.5 168.5t-65.5 156.5q-35 -75 -66.5 -156.5l-62.5 -168.5h258zM189 867h284v-72h-284v72z" />
    <glyph glyph-name="amacron" unicode="&#x101;" horiz-adv-x="522" 
d="M256 67q33 0 58.5 1.5t42.5 5.5v155q-10 5 -32.5 8.5t-54.5 3.5q-21 0 -44.5 -3t-43 -12.5t-32.5 -26t-13 -43.5q0 -50 32 -69.5t87 -19.5zM248 533q56 0 94.5 -14.5t62 -41t33.5 -63t10 -80.5v-325l-33.5 -5.5t-48.5 -6.5t-58.5 -5.5t-62.5 -2.5q-44 0 -81 9t-64 28.5
t-42 51.5t-15 77q0 43 17.5 74t47.5 50t70 28t84 9q14 0 29 -1.5t28.5 -4l23.5 -4.5t14 -3v26q0 23 -5 45.5t-18 40t-35.5 28t-58.5 10.5q-46 0 -80.5 -6.5t-51.5 -13.5l-11 77q18 8 60 15.5t91 7.5zM121 711h284v-72h-284v72z" />
    <glyph glyph-name="Abreve" unicode="&#x102;" horiz-adv-x="663" 
d="M549 0l-32 88.5l-31 88.5h-314l-63 -177h-101l75 203.5l68.5 177.5l66.5 160.5t69 151.5h89q36 -75 69 -151.5l66.5 -160.5l68.5 -177.5l75 -203.5h-106zM458 257l-63.5 168.5t-65.5 156.5q-35 -75 -66.5 -156.5l-62.5 -168.5h258zM332 766q-28 0 -52.5 9.5t-43 27
t-28.5 43.5t-9 59h60q1 -11 4.5 -24t11.5 -23.5t22 -17.5t35 -7t35 7t22 17.5t11.5 23.5t4.5 24h60q1 -33 -9 -59t-28.5 -43.5t-43 -27t-52.5 -9.5z" />
    <glyph glyph-name="abreve" unicode="&#x103;" horiz-adv-x="522" 
d="M256 67q33 0 58.5 1.5t42.5 5.5v155q-10 5 -32.5 8.5t-54.5 3.5q-21 0 -44.5 -3t-43 -12.5t-32.5 -26t-13 -43.5q0 -50 32 -69.5t87 -19.5zM248 533q56 0 94.5 -14.5t62 -41t33.5 -63t10 -80.5v-325l-33.5 -5.5t-48.5 -6.5t-58.5 -5.5t-62.5 -2.5q-44 0 -81 9t-64 28.5
t-42 51.5t-15 77q0 43 17.5 74t47.5 50t70 28t84 9q14 0 29 -1.5t28.5 -4l23.5 -4.5t14 -3v26q0 23 -5 45.5t-18 40t-35.5 28t-58.5 10.5q-46 0 -80.5 -6.5t-51.5 -13.5l-11 77q18 8 60 15.5t91 7.5zM263 610q-28 0 -52.5 9.5t-43 27t-28.5 43.5t-9 59h60q1 -11 4.5 -24
t11.5 -23.5t22 -17.5t35 -7t35 7t22 17.5t11.5 23.5t4.5 24h60q1 -33 -9 -59t-28.5 -43.5t-43 -27t-52.5 -9.5z" />
    <glyph glyph-name="Aogonek" unicode="&#x104;" horiz-adv-x="663" 
d="M550 -2l-32.5 89.5l-31.5 89.5h-314l-63 -177h-101l75 203.5l68.5 177.5l66.5 160.5t69 151.5h89q36 -75 69 -151.5l66 -160l68 -177l75 -202.5q-9 -5 -24 -15t-30 -26q-14 -16 -22 -28t-8 -26q0 -29 40 -29q7 0 18.5 1.5t22.5 5.5l7 -61q-11 -5 -28.5 -8t-37.5 -3
q-56 0 -83 20.5t-27 55.5q0 23 12.5 44.5t29.5 39.5l14.5 14zM458 257l-63.5 168.5t-65.5 156.5q-35 -75 -66.5 -156.5l-62.5 -168.5h258z" />
    <glyph glyph-name="aogonek" unicode="&#x105;" horiz-adv-x="522" 
d="M256 67q33 0 58.5 1.5t42.5 5.5v155q-10 5 -32.5 8.5t-54.5 3.5q-21 0 -44.5 -3t-43 -12.5t-32.5 -26t-13 -43.5q0 -50 32 -69.5t87 -19.5zM248 533q56 0 94.5 -14.5t62 -41t33.5 -63t10 -80.5v-325l-26.5 -20.5t-29.5 -27.5q-14 -16 -23 -28t-9 -26q0 -29 40 -29
q7 0 18.5 1.5t22.5 5.5l7 -61q-11 -5 -28.5 -8t-37.5 -3q-56 0 -83 20.5t-27 55.5q0 23 14 44.5t31 39.5q5 6 12 11.5t12 10.5l-47.5 -4t-48.5 -2q-44 0 -81 9t-64 28.5t-42 51.5t-15 77q0 43 17.5 74t47.5 50t70 28t84 9q14 0 29 -1.5t28.5 -4l23.5 -4.5t14 -3v26
q0 23 -5 45.5t-18 40t-35.5 28t-58.5 10.5q-46 0 -80.5 -6.5t-51.5 -13.5l-11 77q18 8 60 15.5t91 7.5z" />
    <glyph glyph-name="Cacute" unicode="&#x106;" horiz-adv-x="620" 
d="M384 -15q-73 0 -133 24t-103 70t-66.5 113.5t-23.5 154.5t26.5 154.5t71.5 113.5t105 70t128 24q43 0 77.5 -6t60 -14t41.5 -16t22 -12l-28 -80q-9 6 -26 13t-38.5 14t-47 11.5t-51.5 4.5q-55 0 -99 -19t-75 -55t-47.5 -87.5t-16.5 -115.5q0 -62 14.5 -113t43.5 -87.5
t72.5 -56.5t101.5 -20q67 0 111 14t66 25l25 -80q-7 -5 -25 -12.5t-45 -14.5t-63 -12t-78 -5zM488 873l-141 -137l-47 42l128 154z" />
    <glyph glyph-name="cacute" unicode="&#x107;" horiz-adv-x="465" 
d="M306 -12q-63 0 -110.5 20t-80 56t-48.5 85.5t-16 109.5t17.5 110t49.5 86.5t78.5 57t103.5 20.5q35 0 70 -6t67 -19l-21 -79q-21 10 -48.5 16t-58.5 6q-78 0 -119.5 -49t-41.5 -143q0 -42 9.5 -77t30 -60t52.5 -38.5t78 -13.5q37 0 67 7t47 15l13 -78q-8 -5 -23 -9.5
t-34 -8t-40.5 -6t-41.5 -2.5zM408 717l-141 -137l-47 42l128 154z" />
    <glyph glyph-name="Ccircumflex" unicode="&#x108;" horiz-adv-x="620" 
d="M384 -15q-73 0 -133 24t-103 70t-66.5 113.5t-23.5 154.5t26.5 154.5t71.5 113.5t105 70t128 24q43 0 77.5 -6t60 -14t41.5 -16t22 -12l-28 -80q-9 6 -26 13t-38.5 14t-47 11.5t-51.5 4.5q-55 0 -99 -19t-75 -55t-47.5 -87.5t-16.5 -115.5q0 -62 14.5 -113t43.5 -87.5
t72.5 -56.5t101.5 -20q67 0 111 14t66 25l25 -80q-7 -5 -25 -12.5t-45 -14.5t-63 -12t-78 -5zM367 925l136 -143l-39 -44l-97 88l-97 -88l-39 44z" />
    <glyph glyph-name="ccircumflex" unicode="&#x109;" horiz-adv-x="465" 
d="M306 -12q-63 0 -110.5 20t-80 56t-48.5 85.5t-16 109.5t17.5 110t49.5 86.5t78.5 57t103.5 20.5q35 0 70 -6t67 -19l-21 -79q-21 10 -48.5 16t-58.5 6q-78 0 -119.5 -49t-41.5 -143q0 -42 9.5 -77t30 -60t52.5 -38.5t78 -13.5q37 0 67 7t47 15l13 -78q-8 -5 -23 -9.5
t-34 -8t-40.5 -6t-41.5 -2.5zM287 769l136 -143l-39 -44l-97 88l-97 -88l-39 44z" />
    <glyph glyph-name="Cdotaccent" unicode="&#x10a;" horiz-adv-x="620" 
d="M384 -15q-73 0 -133 24t-103 70t-66.5 113.5t-23.5 154.5t26.5 154.5t71.5 113.5t105 70t128 24q43 0 77.5 -6t60 -14t41.5 -16t22 -12l-28 -80q-9 6 -26 13t-38.5 14t-47 11.5t-51.5 4.5q-55 0 -99 -19t-75 -55t-47.5 -87.5t-16.5 -115.5q0 -62 14.5 -113t43.5 -87.5
t72.5 -56.5t101.5 -20q67 0 111 14t66 25l25 -80q-7 -5 -25 -12.5t-45 -14.5t-63 -12t-78 -5zM367 770q-25 0 -42.5 16.5t-17.5 44.5t17.5 44.5t42.5 16.5t42.5 -16.5t17.5 -44.5t-17.5 -44.5t-42.5 -16.5z" />
    <glyph glyph-name="cdotaccent" unicode="&#x10b;" horiz-adv-x="465" 
d="M306 -12q-63 0 -110.5 20t-80 56t-48.5 85.5t-16 109.5t17.5 110t49.5 86.5t78.5 57t103.5 20.5q35 0 70 -6t67 -19l-21 -79q-21 10 -48.5 16t-58.5 6q-78 0 -119.5 -49t-41.5 -143q0 -42 9.5 -77t30 -60t52.5 -38.5t78 -13.5q37 0 67 7t47 15l13 -78q-8 -5 -23 -9.5
t-34 -8t-40.5 -6t-41.5 -2.5zM287 614q-25 0 -42.5 16.5t-17.5 44.5t17.5 44.5t42.5 16.5t42.5 -16.5t17.5 -44.5t-17.5 -44.5t-42.5 -16.5z" />
    <glyph glyph-name="Ccaron" unicode="&#x10c;" horiz-adv-x="620" 
d="M384 -15q-73 0 -133 24t-103 70t-66.5 113.5t-23.5 154.5t26.5 154.5t71.5 113.5t105 70t128 24q43 0 77.5 -6t60 -14t41.5 -16t22 -12l-28 -80q-9 6 -26 13t-38.5 14t-47 11.5t-51.5 4.5q-55 0 -99 -19t-75 -55t-47.5 -87.5t-16.5 -115.5q0 -62 14.5 -113t43.5 -87.5
t72.5 -56.5t101.5 -20q67 0 111 14t66 25l25 -80q-7 -5 -25 -12.5t-45 -14.5t-63 -12t-78 -5zM231 885l39 44l97 -88l97 88l39 -44l-136 -143z" />
    <glyph glyph-name="ccaron" unicode="&#x10d;" horiz-adv-x="465" 
d="M306 -12q-63 0 -110.5 20t-80 56t-48.5 85.5t-16 109.5t17.5 110t49.5 86.5t78.5 57t103.5 20.5q35 0 70 -6t67 -19l-21 -79q-21 10 -48.5 16t-58.5 6q-78 0 -119.5 -49t-41.5 -143q0 -42 9.5 -77t30 -60t52.5 -38.5t78 -13.5q37 0 67 7t47 15l13 -78q-8 -5 -23 -9.5
t-34 -8t-40.5 -6t-41.5 -2.5zM151 729l39 44l97 -88l97 88l39 -44l-136 -143z" />
    <glyph glyph-name="Dcaron" unicode="&#x10e;" horiz-adv-x="713" 
d="M655 347q0 -90 -28 -156.5t-79 -110t-122 -65t-156 -21.5q-42 0 -92.5 3.5t-91.5 13.5v672q41 10 91.5 13.5t92.5 3.5q85 0 156 -21.5t122 -65t79 -110t28 -156.5zM278 79q138 0 206 70.5t68 197.5t-68 197.5t-206 70.5q-41 0 -63.5 -1t-31.5 -2v-530q9 -1 31.5 -2
t63.5 -1zM195 885l39 44l97 -88l97 88l39 -44l-136 -143z" />
    <glyph glyph-name="dcaron" unicode="&#x10f;" horiz-adv-x="622" 
d="M416 410q-17 14 -49 27t-70 13q-40 0 -68.5 -14.5t-46.5 -40t-26 -60.5t-8 -75q0 -91 45 -140.5t120 -49.5q38 0 63.5 3.5t39.5 7.5v329zM416 760l93 16v-761q-32 -9 -82 -18t-115 -9q-60 0 -108 19t-82 54t-52.5 85.5t-18.5 113.5q0 60 15.5 110t45.5 86t73.5 56
t99.5 20q45 0 79.5 -12t51.5 -23v263zM668 776l-27 -223h-62v223h89z" />
    <glyph glyph-name="Dcroat" unicode="&#x110;" horiz-adv-x="726" 
d="M668 347q0 -90 -28 -156.5t-79 -110t-122 -65t-156 -21.5q-42 0 -92.5 3.5t-91.5 13.5v313h-80v75h80v284q41 10 91.5 13.5t92.5 3.5q85 0 156 -21.5t122 -65t79 -110t28 -156.5zM291 79q138 0 206 70.5t68 197.5t-68 197.5t-206 70.5q-41 0 -63.5 -1t-31.5 -2v-213h130
v-75h-130v-242q9 -1 31.5 -2t63.5 -1z" />
    <glyph glyph-name="dcroat" unicode="&#x111;" horiz-adv-x="589" 
d="M416 406q-17 14 -49 27t-70 13q-40 0 -68.5 -14t-46.5 -39t-26 -59.5t-8 -74.5q0 -91 45 -140t120 -49q38 0 63.5 3.5t39.5 7.5v325zM416 760l93 16v-93h74v-69h-74v-599q-32 -9 -82 -18t-115 -9q-60 0 -108 18.5t-82 54t-52.5 85.5t-18.5 113q0 60 15.5 109.5t45.5 85
t73.5 55t99.5 19.5q45 0 79.5 -12t51.5 -23v121h-177v69h177v77z" />
    <glyph glyph-name="Emacron" unicode="&#x112;" horiz-adv-x="571" 
d="M86 0v693h423v-83h-326v-206h290v-81h-290v-240h351v-83h-448zM155 867h284v-72h-284v72z" />
    <glyph glyph-name="emacron" unicode="&#x113;" horiz-adv-x="559" 
d="M51 259q0 69 20 120.5t53 85.5t76 51t88 17q105 0 161 -65.5t56 -199.5v-15.5t-1 -17.5h-356q6 -81 47 -123t128 -42q49 0 82.5 8.5t50.5 16.5l13 -78q-17 -9 -59.5 -19t-96.5 -10q-68 0 -117.5 20.5t-81.5 56.5t-47.5 85.5t-15.5 108.5zM408 310q1 63 -31.5 103.5
t-89.5 40.5q-32 0 -56.5 -12.5t-41.5 -32.5t-26.5 -46t-12.5 -53h258zM136 711h284v-72h-284v72z" />
    <glyph glyph-name="Ebreve" unicode="&#x114;" horiz-adv-x="571" 
d="M86 0v693h423v-83h-326v-206h290v-81h-290v-240h351v-83h-448zM288 766q-28 0 -52.5 9.5t-43 27t-28.5 43.5t-9 59h60q1 -11 4.5 -24t11.5 -23.5t22 -17.5t35 -7t35 7t22 17.5t11.5 23.5t4.5 24h60q1 -33 -9 -59t-28.5 -43.5t-43 -27t-52.5 -9.5z" />
    <glyph glyph-name="ebreve" unicode="&#x115;" horiz-adv-x="559" 
d="M51 259q0 69 20 120.5t53 85.5t76 51t88 17q105 0 161 -65.5t56 -199.5v-15.5t-1 -17.5h-356q6 -81 47 -123t128 -42q49 0 82.5 8.5t50.5 16.5l13 -78q-17 -9 -59.5 -19t-96.5 -10q-68 0 -117.5 20.5t-81.5 56.5t-47.5 85.5t-15.5 108.5zM408 310q1 63 -31.5 103.5
t-89.5 40.5q-32 0 -56.5 -12.5t-41.5 -32.5t-26.5 -46t-12.5 -53h258zM282 610q-28 0 -52.5 9.5t-43 27t-28.5 43.5t-9 59h60q1 -11 4.5 -24t11.5 -23.5t22 -17.5t35 -7t35 7t22 17.5t11.5 23.5t4.5 24h60q1 -33 -9 -59t-28.5 -43.5t-43 -27t-52.5 -9.5z" />
    <glyph glyph-name="Edotaccent" unicode="&#x116;" horiz-adv-x="571" 
d="M86 0v693h423v-83h-326v-206h290v-81h-290v-240h351v-83h-448zM297 770q-25 0 -42.5 16.5t-17.5 44.5t17.5 44.5t42.5 16.5t42.5 -16.5t17.5 -44.5t-17.5 -44.5t-42.5 -16.5z" />
    <glyph glyph-name="edotaccent" unicode="&#x117;" horiz-adv-x="559" 
d="M51 259q0 69 20 120.5t53 85.5t76 51t88 17q105 0 161 -65.5t56 -199.5v-15.5t-1 -17.5h-356q6 -81 47 -123t128 -42q49 0 82.5 8.5t50.5 16.5l13 -78q-17 -9 -59.5 -19t-96.5 -10q-68 0 -117.5 20.5t-81.5 56.5t-47.5 85.5t-15.5 108.5zM408 310q1 63 -31.5 103.5
t-89.5 40.5q-32 0 -56.5 -12.5t-41.5 -32.5t-26.5 -46t-12.5 -53h258zM286 614q-25 0 -42.5 16.5t-17.5 44.5t17.5 44.5t42.5 16.5t42.5 -16.5t17.5 -44.5t-17.5 -44.5t-42.5 -16.5z" />
    <glyph glyph-name="Eogonek" unicode="&#x118;" horiz-adv-x="571" 
d="M86 0v693h423v-83h-326v-206h290v-81h-290v-240h351v-81q-9 -5 -24 -15t-30 -26q-14 -16 -22 -28t-8 -26q0 -29 40 -29q7 0 18.5 1.5t22.5 5.5l7 -61q-11 -5 -28.5 -8t-37.5 -3q-56 0 -83 20.5t-27 55.5q0 23 12.5 44.5t29.5 39.5l14.5 14.5t14.5 12.5h-347z" />
    <glyph glyph-name="eogonek" unicode="&#x119;" horiz-adv-x="559" 
d="M51 259q0 69 20 120.5t53 85.5t76 51t88 17q105 0 161 -65.5t56 -199.5v-15.5t-1 -17.5h-356q6 -81 47 -123t128 -42q49 0 82.5 8.5t50.5 16.5l13 -78l-34 -26t-33 -30q-17 -17 -24.5 -29.5t-7.5 -24.5q0 -17 11.5 -23t28.5 -6q12 0 23 2.5t18 4.5l7 -61q-12 -6 -31 -8.5
t-35 -2.5q-51 0 -80.5 18t-29.5 58q0 23 16.5 49t47.5 52q-8 -1 -16.5 -1.5t-16.5 -0.5q-68 0 -117.5 20.5t-81.5 56.5t-47.5 85.5t-15.5 108.5zM408 310q1 63 -31.5 103.5t-89.5 40.5q-32 0 -56.5 -12.5t-41.5 -32.5t-26.5 -46t-12.5 -53h258z" />
    <glyph glyph-name="Ecaron" unicode="&#x11a;" horiz-adv-x="571" 
d="M86 0v693h423v-83h-326v-206h290v-81h-290v-240h351v-83h-448zM152 885l39 44l97 -88l97 88l39 -44l-136 -143z" />
    <glyph glyph-name="ecaron" unicode="&#x11b;" horiz-adv-x="559" 
d="M51 259q0 69 20 120.5t53 85.5t76 51t88 17q105 0 161 -65.5t56 -199.5v-15.5t-1 -17.5h-356q6 -81 47 -123t128 -42q49 0 82.5 8.5t50.5 16.5l13 -78q-17 -9 -59.5 -19t-96.5 -10q-68 0 -117.5 20.5t-81.5 56.5t-47.5 85.5t-15.5 108.5zM408 310q1 63 -31.5 103.5
t-89.5 40.5q-32 0 -56.5 -12.5t-41.5 -32.5t-26.5 -46t-12.5 -53h258zM150 729l39 44l97 -88l97 88l39 -44l-136 -143z" />
    <glyph glyph-name="Gcircumflex" unicode="&#x11c;" horiz-adv-x="672" 
d="M509 341h97v-324q-12 -4 -34.5 -9t-52 -10t-64.5 -8.5t-71 -3.5q-73 0 -133 24t-103 70t-66.5 113t-23.5 154t26.5 154.5t71.5 113.5t105.5 70t129.5 24q47 0 83.5 -6t62.5 -14t42.5 -16t22.5 -12l-31 -81q-29 19 -77 31.5t-98 12.5q-53 0 -96.5 -19t-74 -55t-47.5 -87.5
t-17 -115.5q0 -62 14.5 -113t44 -87.5t73 -56.5t102.5 -20q42 0 71.5 4.5t42.5 8.5v258zM375 925l136 -143l-39 -44l-97 88l-97 -88l-39 44z" />
    <glyph glyph-name="gcircumflex" unicode="&#x11d;" horiz-adv-x="578" 
d="M406 52q-12 -8 -46.5 -20.5t-80.5 -12.5q-47 0 -88.5 15t-72.5 46.5t-49 78.5t-18 112q0 57 17 104.5t49.5 82t79.5 54t106 19.5q65 0 113.5 -9.5t81.5 -17.5v-464q0 -120 -62 -174t-188 -54q-49 0 -92.5 8t-75.5 19l17 81q28 -11 68.5 -19.5t84.5 -8.5q83 0 119.5 33
t36.5 105v22zM405 438q-14 4 -37.5 7.5t-63.5 3.5q-75 0 -115.5 -49t-40.5 -130q0 -45 11.5 -77t31 -53t45 -31t52.5 -10q37 0 68 10.5t49 24.5v304zM303 769l136 -143l-39 -44l-97 88l-97 -88l-39 44z" />
    <glyph glyph-name="Gbreve" unicode="&#x11e;" horiz-adv-x="672" 
d="M509 341h97v-324q-12 -4 -34.5 -9t-52 -10t-64.5 -8.5t-71 -3.5q-73 0 -133 24t-103 70t-66.5 113t-23.5 154t26.5 154.5t71.5 113.5t105.5 70t129.5 24q47 0 83.5 -6t62.5 -14t42.5 -16t22.5 -12l-31 -81q-29 19 -77 31.5t-98 12.5q-53 0 -96.5 -19t-74 -55t-47.5 -87.5
t-17 -115.5q0 -62 14.5 -113t44 -87.5t73 -56.5t102.5 -20q42 0 71.5 4.5t42.5 8.5v258zM375 766q-28 0 -52.5 9.5t-43 27t-28.5 43.5t-9 59h60q1 -11 4.5 -24t11.5 -23.5t22 -17.5t35 -7t35 7t22 17.5t11.5 23.5t4.5 24h60q1 -33 -9 -59t-28.5 -43.5t-43 -27t-52.5 -9.5z
" />
    <glyph glyph-name="gbreve" unicode="&#x11f;" horiz-adv-x="578" 
d="M406 52q-12 -8 -46.5 -20.5t-80.5 -12.5q-47 0 -88.5 15t-72.5 46.5t-49 78.5t-18 112q0 57 17 104.5t49.5 82t79.5 54t106 19.5q65 0 113.5 -9.5t81.5 -17.5v-464q0 -120 -62 -174t-188 -54q-49 0 -92.5 8t-75.5 19l17 81q28 -11 68.5 -19.5t84.5 -8.5q83 0 119.5 33
t36.5 105v22zM405 438q-14 4 -37.5 7.5t-63.5 3.5q-75 0 -115.5 -49t-40.5 -130q0 -45 11.5 -77t31 -53t45 -31t52.5 -10q37 0 68 10.5t49 24.5v304zM303 610q-28 0 -52.5 9.5t-43 27t-28.5 43.5t-9 59h60q1 -11 4.5 -24t11.5 -23.5t22 -17.5t35 -7t35 7t22 17.5t11.5 23.5
t4.5 24h60q1 -33 -9 -59t-28.5 -43.5t-43 -27t-52.5 -9.5z" />
    <glyph glyph-name="Gdotaccent" unicode="&#x120;" horiz-adv-x="672" 
d="M509 341h97v-324q-12 -4 -34.5 -9t-52 -10t-64.5 -8.5t-71 -3.5q-73 0 -133 24t-103 70t-66.5 113t-23.5 154t26.5 154.5t71.5 113.5t105.5 70t129.5 24q47 0 83.5 -6t62.5 -14t42.5 -16t22.5 -12l-31 -81q-29 19 -77 31.5t-98 12.5q-53 0 -96.5 -19t-74 -55t-47.5 -87.5
t-17 -115.5q0 -62 14.5 -113t44 -87.5t73 -56.5t102.5 -20q42 0 71.5 4.5t42.5 8.5v258zM375 770q-25 0 -42.5 16.5t-17.5 44.5t17.5 44.5t42.5 16.5t42.5 -16.5t17.5 -44.5t-17.5 -44.5t-42.5 -16.5z" />
    <glyph glyph-name="gdotaccent" unicode="&#x121;" horiz-adv-x="578" 
d="M406 52q-12 -8 -46.5 -20.5t-80.5 -12.5q-47 0 -88.5 15t-72.5 46.5t-49 78.5t-18 112q0 57 17 104.5t49.5 82t79.5 54t106 19.5q65 0 113.5 -9.5t81.5 -17.5v-464q0 -120 -62 -174t-188 -54q-49 0 -92.5 8t-75.5 19l17 81q28 -11 68.5 -19.5t84.5 -8.5q83 0 119.5 33
t36.5 105v22zM405 438q-14 4 -37.5 7.5t-63.5 3.5q-75 0 -115.5 -49t-40.5 -130q0 -45 11.5 -77t31 -53t45 -31t52.5 -10q37 0 68 10.5t49 24.5v304zM303 614q-25 0 -42.5 16.5t-17.5 44.5t17.5 44.5t42.5 16.5t42.5 -16.5t17.5 -44.5t-17.5 -44.5t-42.5 -16.5z" />
    <glyph glyph-name="Gcommaaccent" unicode="&#x122;" horiz-adv-x="672" 
d="M509 341h97v-324q-12 -4 -34.5 -9t-52 -10t-64.5 -8.5t-71 -3.5q-73 0 -133 24t-103 70t-66.5 113t-23.5 154t26.5 154.5t71.5 113.5t105.5 70t129.5 24q47 0 83.5 -6t62.5 -14t42.5 -16t22.5 -12l-31 -81q-29 19 -77 31.5t-98 12.5q-53 0 -96.5 -19t-74 -55t-47.5 -87.5
t-17 -115.5q0 -62 14.5 -113t44 -87.5t73 -56.5t102.5 -20q42 0 71.5 4.5t42.5 8.5v258zM334 -50h89q1 -5 1 -11.5v-9.5q0 -32 -9.5 -54t-25.5 -36t-37.5 -20.5t-45.5 -6.5q-13 0 -23.5 1t-13.5 3v56q15 0 27.5 2t20.5 8.5t12.5 19.5t4.5 35v13z" />
    <glyph glyph-name="gcommaaccent" unicode="&#x123;" horiz-adv-x="578" 
d="M406 52q-12 -8 -46.5 -20.5t-80.5 -12.5q-47 0 -88.5 15t-72.5 46.5t-49 78.5t-18 112q0 57 17 104.5t49.5 82t79.5 54t106 19.5q65 0 113.5 -9.5t81.5 -17.5v-464q0 -120 -62 -174t-188 -54q-49 0 -92.5 8t-75.5 19l17 81q28 -11 68.5 -19.5t84.5 -8.5q83 0 119.5 33
t36.5 105v22zM405 438q-14 4 -37.5 7.5t-63.5 3.5q-75 0 -115.5 -49t-40.5 -130q0 -45 11.5 -77t31 -53t45 -31t52.5 -10q37 0 68 10.5t49 24.5v304zM347 609h-89q-1 5 -1 11.5v9.5q0 36 10 62.5t26.5 44.5t36.5 28.5t40 15.5l33 -45q-12 -9 -22.5 -18t-18 -21.5t-11.5 -30
t-4 -44.5v-13z" />
    <glyph glyph-name="Hcircumflex" unicode="&#x124;" horiz-adv-x="705" 
d="M522 693h97v-693h-97v320h-339v-320h-97v693h97v-289h339v289zM352 925l136 -143l-39 -44l-97 88l-97 -88l-39 44z" />
    <glyph glyph-name="hcircumflex" unicode="&#x125;" horiz-adv-x="571" 
d="M80 0v760l93 16v-266q26 10 55.5 15.5t58.5 5.5q62 0 103 -17.5t65.5 -49t34.5 -75.5t10 -97v-292h-93v272q0 48 -6.5 82t-21.5 55t-40 30.5t-62 9.5q-15 0 -31 -2t-30.5 -4.5t-26 -5.5t-16.5 -5v-432h-93zM176 962l123 -95l-29 -45l-94 61l-94 -61l-29 45z" />
    <glyph glyph-name="Hbar" unicode="&#x126;" horiz-adv-x="731" 
d="M19 594h80v99h97v-99h339v99h97v-99h80v-71h-80v-523h-97v320h-339v-320h-97v523h-80v71zM535 523h-339v-119h339v119z" />
    <glyph glyph-name="hbar" unicode="&#x127;" horiz-adv-x="571" 
d="M80 0v614h-74v69h74v77l93 16v-93h177v-69h-177v-108q26 10 55.5 15.5t58.5 5.5q62 0 103 -17.5t65.5 -49t34.5 -75.5t10 -97v-288h-93v268q0 48 -6.5 82t-21.5 55t-40 30.5t-62 9.5q-15 0 -31 -2t-30.5 -4.5t-26 -5.5t-16.5 -5v-428h-93z" />
    <glyph glyph-name="Itilde" unicode="&#x128;" horiz-adv-x="269" 
d="M86 693h97v-693h-97v693zM300 867q-5 -12 -13.5 -28t-21.5 -29.5t-30.5 -23t-38.5 -9.5q-20 0 -37.5 7t-33.5 15q-17 8 -29 12t-23 4q-17 0 -31.5 -14t-22.5 -30l-48 24q4 12 13 28t22 29.5t30.5 23t38.5 9.5q20 0 37.5 -7t33.5 -15q17 -8 29 -12t23 -4q17 0 31.5 14
t22.5 30z" />
    <glyph glyph-name="itilde" unicode="&#x129;" horiz-adv-x="253" 
d="M173 0h-93v520h93v-520zM292 711q-5 -12 -13.5 -28t-21.5 -29.5t-30.5 -23t-38.5 -9.5q-20 0 -37.5 7t-33.5 15q-17 8 -29 12t-23 4q-17 0 -31.5 -14t-22.5 -30l-48 24q4 12 13 28t22 29.5t30.5 23t38.5 9.5q20 0 37.5 -7t33.5 -15q17 -8 29 -12t23 -4q17 0 31.5 14
t22.5 30z" />
    <glyph glyph-name="Imacron" unicode="&#x12a;" horiz-adv-x="269" 
d="M86 693h97v-693h-97v693zM-7 867h284v-72h-284v72z" />
    <glyph glyph-name="imacron" unicode="&#x12b;" horiz-adv-x="253" 
d="M173 0h-93v520h93v-520zM-15 711h284v-72h-284v72z" />
    <glyph glyph-name="Ibreve" unicode="&#x12c;" horiz-adv-x="269" 
d="M86 693h97v-693h-97v693zM135 766q-28 0 -52.5 9.5t-43 27t-28.5 43.5t-9 59h60q1 -11 4.5 -24t11.5 -23.5t22 -17.5t35 -7t35 7t22 17.5t11.5 23.5t4.5 24h60q1 -33 -9 -59t-28.5 -43.5t-43 -27t-52.5 -9.5z" />
    <glyph glyph-name="ibreve" unicode="&#x12d;" horiz-adv-x="253" 
d="M173 0h-93v520h93v-520zM127 610q-28 0 -52.5 9.5t-43 27t-28.5 43.5t-9 59h60q1 -11 4.5 -24t11.5 -23.5t22 -17.5t35 -7t35 7t22 17.5t11.5 23.5t4.5 24h60q1 -33 -9 -59t-28.5 -43.5t-43 -27t-52.5 -9.5z" />
    <glyph glyph-name="Iogonek" unicode="&#x12e;" horiz-adv-x="269" 
d="M86 693h97v-693l-22.5 -17t-23.5 -22q-14 -16 -23 -28t-9 -26q0 -29 40 -29q7 0 18.5 1.5t22.5 5.5l7 -61q-24 -11 -66 -11q-57 0 -83.5 20.5t-26.5 55.5q0 23 13 44.5t30 39.5l14.5 14.5t11.5 10.5v695z" />
    <glyph glyph-name="iogonek" unicode="&#x12f;" horiz-adv-x="253" 
d="M173 0q-24 -18 -44 -39q-14 -16 -23 -28t-9 -26q0 -29 40 -29q7 0 18.5 1.5t22.5 5.5l7 -61q-24 -11 -66 -11q-57 0 -83.5 20.5t-26.5 55.5q0 23 13 44t30 40q8 9 15 15.5t13 11.5v520h93v-520zM126 614q-25 0 -42.5 16.5t-17.5 44.5t17.5 44.5t42.5 16.5t42.5 -16.5
t17.5 -44.5t-17.5 -44.5t-42.5 -16.5z" />
    <glyph glyph-name="Idotaccent" unicode="&#x130;" horiz-adv-x="269" 
d="M86 693h97v-693h-97v693zM135 770q-25 0 -42.5 16.5t-17.5 44.5t17.5 44.5t42.5 16.5t42.5 -16.5t17.5 -44.5t-17.5 -44.5t-42.5 -16.5z" />
    <glyph glyph-name="dotlessi" unicode="&#x131;" horiz-adv-x="253" 
d="M173 0h-93v520h93v-520z" />
    <glyph glyph-name="i.locl" horiz-adv-x="253" 
d="M173 0h-93v520h93v-520zM126 614q-25 0 -42.5 16.5t-17.5 44.5t17.5 44.5t42.5 16.5t42.5 -16.5t17.5 -44.5t-17.5 -44.5t-42.5 -16.5z" />
    <glyph glyph-name="IJ" unicode="&#x132;" horiz-adv-x="768" 
d="M86 693h97v-693h-97v693zM692 223q0 -50 -10.5 -93t-37 -75.5t-71 -51t-111.5 -18.5q-34 0 -62.5 5.5t-51.5 14t-40 18t-27 18.5l38 77q21 -15 54.5 -31.5t83.5 -16.5q72 0 105 36.5t33 125.5v461h97v-470z" />
    <glyph glyph-name="ij" unicode="&#x133;" horiz-adv-x="510" 
d="M173 0h-93v520h93v-520zM126 614q-25 0 -42.5 16.5t-17.5 44.5t17.5 44.5t42.5 16.5t42.5 -16.5t17.5 -44.5t-17.5 -44.5t-42.5 -16.5zM252 -187q-12 0 -31 3t-32 8l12 76q10 -3 23 -5t24 -2q48 0 68.5 29.5t20.5 86.5v511h93v-510q0 -100 -45.5 -148.5t-132.5 -48.5z
M383 614q-25 0 -42.5 16.5t-17.5 44.5t17.5 44.5t42.5 16.5t42.5 -16.5t17.5 -44.5t-17.5 -44.5t-42.5 -16.5z" />
    <glyph glyph-name="Jcircumflex" unicode="&#x134;" horiz-adv-x="500" 
d="M419 223q0 -50 -10.5 -93t-37 -75.5t-71 -51t-111.5 -18.5q-34 0 -62.5 5.5t-51.5 14t-40 18t-27 18.5l38 77q21 -15 54.5 -31.5t83.5 -16.5q72 0 105 36.5t33 125.5v461h97v-470zM370 925l136 -143l-39 -44l-97 88l-97 -88l-39 44z" />
    <glyph glyph-name="jcircumflex" unicode="&#x135;" horiz-adv-x="253" 
d="M-5 -185q-12 0 -31 3t-32 8l12 76q10 -3 23 -5t24 -2q48 0 68.5 29.5t20.5 86.5v509h93v-508q0 -100 -45.5 -148.5t-132.5 -48.5zM127 769l136 -143l-39 -44l-97 88l-97 -88l-39 44z" />
    <glyph glyph-name="Kcommaaccent" unicode="&#x136;" horiz-adv-x="629" 
d="M599 693l-70 -75.5l-81.5 -85l-84.5 -85.5l-79 -78q43 -30 91 -74t94 -94t86.5 -102t67.5 -99h-114q-30 47 -69 94.5t-82.5 91t-88 80.5t-86.5 63v-329h-97v693h97v-306l77 74.5l83 83.5l77.5 80.5t61.5 67.5h117zM289 -50h89q1 -5 1 -11.5v-9.5q0 -32 -9.5 -54
t-25.5 -36t-37.5 -20.5t-45.5 -6.5q-13 0 -23.5 1t-13.5 3v56q15 0 27.5 2t20.5 8.5t12.5 19.5t4.5 35v13z" />
    <glyph glyph-name="kcommaaccent" unicode="&#x137;" horiz-adv-x="522" 
d="M268 286q30 -23 63.5 -57t66 -73.5t61.5 -80t49 -75.5h-109q-21 35 -48.5 71.5t-57.5 70t-61 61.5t-59 47v-250h-93v760l93 16v-474l53 53l57 59l53 57.5l43 48.5h109l-50 -55l-56 -60.5l-58.5 -61zM233 -50h89q1 -5 1 -11.5v-9.5q0 -32 -9.5 -54t-25.5 -36t-37.5 -20.5
t-45.5 -6.5q-13 0 -23.5 1t-13.5 3v56q15 0 27.5 2t20.5 8.5t12.5 19.5t4.5 35v13z" />
    <glyph glyph-name="kgreenlandic.case" horiz-adv-x="744" 
d="M599 693l-70 -75.5l-81.5 -85l-84.5 -85.5l-79 -78q43 -30 91 -74t94 -94t86.5 -102t67.5 -99h-114q-30 47 -69 94.5t-82.5 91t-88 80.5t-86.5 63v-329h-97v693h97v-306l77 74.5l83 83.5l77.5 80.5t61.5 67.5h117zM617 520v21.5t1 20.5q4 52 23 103t46 95l72 -23
q-21 -44 -31.5 -89t-10.5 -84q0 -10 0.5 -21.5t1.5 -22.5h-102z" />
    <glyph glyph-name="kgreenlandic" unicode="&#x138;" horiz-adv-x="537" 
d="M270 283q31 -22 67 -55.5t70.5 -72.5t64.5 -79.5t51 -75.5h-110q-22 34 -51.5 69.5t-61.5 68.5t-65 61t-62 47v-246h-93v520h93v-223l55 53.5l62.5 62l58.5 60l44 47.5h108l-51.5 -54.5l-61 -62.5l-62.5 -63.5z" />
    <glyph glyph-name="Lacute" unicode="&#x139;" horiz-adv-x="519" 
d="M503 84v-84h-417v693h97v-609h320zM280 873l-141 -137l-47 42l128 154z" />
    <glyph glyph-name="lacute" unicode="&#x13a;" horiz-adv-x="273" 
d="M236 -10q-86 2 -122 37t-36 109v624l93 16v-625q0 -23 4 -38t13 -24t24 -13.5t37 -7.5zM248 879l-168 -60l-21 55l161 78z" />
    <glyph glyph-name="Lcommaaccent" unicode="&#x13b;" horiz-adv-x="519" 
d="M503 84v-84h-417v693h97v-609h320zM253 -50h89q1 -5 1 -11.5v-9.5q0 -32 -9.5 -54t-25.5 -36t-37.5 -20.5t-45.5 -6.5q-13 0 -23.5 1t-13.5 3v56q15 0 27.5 2t20.5 8.5t12.5 19.5t4.5 35v13z" />
    <glyph glyph-name="lcommaaccent" unicode="&#x13c;" horiz-adv-x="273" 
d="M236 -10q-86 2 -122 37t-36 109v624l93 16v-625q0 -23 4 -38t13 -24t24 -13.5t37 -7.5zM104 -50h89q1 -5 1 -11.5v-9.5q0 -32 -9.5 -54t-25.5 -36t-37.5 -20.5t-45.5 -6.5q-13 0 -23.5 1t-13.5 3v56q15 0 27.5 2t20.5 8.5t12.5 19.5t4.5 35v13z" />
    <glyph glyph-name="Lcaron" unicode="&#x13d;" horiz-adv-x="519" 
d="M503 84v-84h-417v693h97v-609h320zM362 694l-27 -223h-62v223h89z" />
    <glyph glyph-name="lcaron" unicode="&#x13e;" horiz-adv-x="284" 
d="M236 -10q-86 2 -122 37t-36 109v624l93 16v-625q0 -23 4 -38t13 -24t24 -13.5t37 -7.5zM330 776l-27 -223h-62v223h89z" />
    <glyph glyph-name="Ldot" unicode="&#x13f;" horiz-adv-x="519" 
d="M503 84v-84h-417v693h97v-609h320zM395 302q-25 0 -42.5 16.5t-17.5 44.5t17.5 44.5t42.5 16.5t42.5 -16.5t17.5 -44.5t-17.5 -44.5t-42.5 -16.5z" />
    <glyph glyph-name="ldot" unicode="&#x140;" horiz-adv-x="369" 
d="M236 -10q-86 2 -122 37t-36 109v624l93 16v-625q0 -23 4 -38t13 -24t24 -13.5t37 -7.5zM311 302q-25 0 -42.5 16.5t-17.5 44.5t17.5 44.5t42.5 16.5t42.5 -16.5t17.5 -44.5t-17.5 -44.5t-42.5 -16.5z" />
    <glyph glyph-name="Lslash" unicode="&#x141;" horiz-adv-x="537" 
d="M521 84v-84h-417v286l-73 -37l-33 66l106 54v324h97v-274l116 60l32 -66l-148 -77v-252h320z" />
    <glyph glyph-name="lslash" unicode="&#x142;" horiz-adv-x="287" 
d="M250 -10q-86 2 -122 37t-36 109v204l-57 -29l-32 62l89 45v342l93 16v-310l73 38l31 -62l-104 -54v-237q0 -23 4 -38t13 -24t24 -13.5t37 -7.5z" />
    <glyph glyph-name="Nacute" unicode="&#x143;" horiz-adv-x="728" 
d="M561 0l-50.5 83l-61.5 95.5l-68.5 100.5l-70.5 98.5l-68 89.5t-61 74v-541h-95v693h77q47 -50 100.5 -116.5l106 -137l99 -138.5t78.5 -121v513h95v-693h-81zM485 873l-141 -137l-47 42l128 154z" />
    <glyph glyph-name="nacute" unicode="&#x144;" 
d="M80 505q32 8 85 17t122 9q62 0 103 -17.5t65.5 -49t34.5 -75.5t10 -97v-292h-93v272q0 48 -6.5 82t-21.5 55t-40 30.5t-62 9.5q-15 0 -31 -1t-30.5 -2.5t-26 -3.5t-16.5 -3v-439h-93v505zM411 717l-141 -137l-47 42l128 154z" />
    <glyph glyph-name="Ncommaaccent" unicode="&#x145;" horiz-adv-x="728" 
d="M561 0l-50.5 83l-61.5 95.5l-68.5 100.5l-70.5 98.5l-68 89.5t-61 74v-541h-95v693h77q47 -50 100.5 -116.5l106 -137l99 -138.5t78.5 -121v513h95v-693h-81zM323 -50h89q1 -5 1 -11.5v-9.5q0 -32 -9.5 -54t-25.5 -36t-37.5 -20.5t-45.5 -6.5q-13 0 -23.5 1t-13.5 3v56
q15 0 27.5 2t20.5 8.5t12.5 19.5t4.5 35v13z" />
    <glyph glyph-name="ncommaaccent" unicode="&#x146;" 
d="M80 505q32 8 85 17t122 9q62 0 103 -17.5t65.5 -49t34.5 -75.5t10 -97v-292h-93v272q0 48 -6.5 82t-21.5 55t-40 30.5t-62 9.5q-15 0 -31 -1t-30.5 -2.5t-26 -3.5t-16.5 -3v-439h-93v505zM249 -50h89q1 -5 1 -11.5v-9.5q0 -32 -9.5 -54t-25.5 -36t-37.5 -20.5t-45.5 -6.5
q-13 0 -23.5 1t-13.5 3v56q15 0 27.5 2t20.5 8.5t12.5 19.5t4.5 35v13z" />
    <glyph glyph-name="Ncaron" unicode="&#x147;" horiz-adv-x="728" 
d="M561 0l-50.5 83l-61.5 95.5l-68.5 100.5l-70.5 98.5l-68 89.5t-61 74v-541h-95v693h77q47 -50 100.5 -116.5l106 -137l99 -138.5t78.5 -121v513h95v-693h-81zM228 885l39 44l97 -88l97 88l39 -44l-136 -143z" />
    <glyph glyph-name="ncaron" unicode="&#x148;" 
d="M80 505q32 8 85 17t122 9q62 0 103 -17.5t65.5 -49t34.5 -75.5t10 -97v-292h-93v272q0 48 -6.5 82t-21.5 55t-40 30.5t-62 9.5q-15 0 -31 -1t-30.5 -2.5t-26 -3.5t-16.5 -3v-439h-93v505zM154 729l39 44l97 -88l97 88l39 -44l-136 -143z" />
    <glyph glyph-name="napostrophe.case" horiz-adv-x="840" 
d="M673 0l-50.5 83l-61.5 95.5l-68.5 100.5l-70.5 98.5l-68 89.5t-61 74v-541h-95v693h77q47 -50 100.5 -116.5l106 -137l99 -138.5t78.5 -121v513h95v-693h-81zM137 776v-18.5t-1 -17.5q-4 -51 -21 -93.5t-41 -80.5l-67 23q19 38 27.5 74.5t8.5 74.5q0 10 -0.5 21t-1.5 17
h96z" />
    <glyph glyph-name="napostrophe" unicode="&#x149;" 
d="M80 505q32 8 85 17t122 9q62 0 103 -17.5t65.5 -49t34.5 -75.5t10 -97v-292h-93v272q0 48 -6.5 82t-21.5 55t-40 30.5t-62 9.5q-15 0 -31 -1t-30.5 -2.5t-26 -3.5t-16.5 -3v-439h-93v505zM137 776v-18.5t-1 -17.5q-4 -51 -21 -93.5t-41 -80.5l-67 23q19 38 27.5 74.5
t8.5 74.5q0 10 -0.5 21t-1.5 17h96z" />
    <glyph glyph-name="Eng" unicode="&#x14a;" horiz-adv-x="728" 
d="M547 24l-81.5 128l-96.5 142l-99 136.5t-89 110.5v-541h-95v693h77q47 -50 100.5 -116.5l106 -137l99 -138.5t78.5 -121v513h95v-693q0 -46 -6 -81t-22 -58.5t-45 -35.5t-74 -12q-14 0 -32.5 2.5t-29.5 5.5l9 73q8 -3 21.5 -4t21.5 -1q37 0 49.5 24.5t12.5 69.5v41z" />
    <glyph glyph-name="eng" unicode="&#x14b;" 
d="M80 505q32 8 85 17t122 9q62 0 103 -17.5t65.5 -49t34.5 -75.5t10 -97v-292q0 -46 -6.5 -81t-23 -58.5t-45.5 -35.5t-74 -12q-14 0 -32.5 2.5t-29.5 5.5l9 73q8 -3 21.5 -4t21.5 -1q37 0 51.5 24.5t14.5 69.5v289q0 48 -6.5 82t-21.5 55t-40 30.5t-62 9.5q-15 0 -31 -1
t-30.5 -2.5t-26 -3.5t-16.5 -3v-439h-93v505z" />
    <glyph glyph-name="Omacron" unicode="&#x14c;" horiz-adv-x="778" 
d="M58 347q0 89 26.5 157t72 113.5t106 68.5t128.5 23q67 0 126.5 -23t104.5 -68.5t71.5 -113.5t26.5 -157t-26.5 -157t-71.5 -113.5t-104.5 -68.5t-126.5 -23q-68 0 -128.5 23t-106 68.5t-72 113.5t-26.5 157zM160 347q0 -63 16 -114.5t45.5 -87.5t72 -55.5t95.5 -19.5
t95 19.5t71.5 55.5t45.5 87.5t16 114.5t-16 114.5t-45.5 87.5t-71.5 55.5t-95 19.5t-95.5 -19.5t-72 -55.5t-45.5 -87.5t-16 -114.5zM247 867h284v-72h-284v72z" />
    <glyph glyph-name="omacron" unicode="&#x14d;" horiz-adv-x="590" 
d="M539 260q0 -62 -18 -112t-50.5 -86t-77.5 -55.5t-98 -19.5t-98 19.5t-77.5 55.5t-50.5 86t-18 112q0 61 18 111.5t50.5 86.5t77.5 55.5t98 19.5t98 -19.5t77.5 -55.5t50.5 -86.5t18 -111.5zM442 260q0 88 -39.5 139.5t-107.5 51.5t-107.5 -51.5t-39.5 -139.5t39.5 -139.5
t107.5 -51.5t107.5 51.5t39.5 139.5zM153 711h284v-72h-284v72z" />
    <glyph glyph-name="Obreve" unicode="&#x14e;" horiz-adv-x="778" 
d="M58 347q0 89 26.5 157t72 113.5t106 68.5t128.5 23q67 0 126.5 -23t104.5 -68.5t71.5 -113.5t26.5 -157t-26.5 -157t-71.5 -113.5t-104.5 -68.5t-126.5 -23q-68 0 -128.5 23t-106 68.5t-72 113.5t-26.5 157zM160 347q0 -63 16 -114.5t45.5 -87.5t72 -55.5t95.5 -19.5
t95 19.5t71.5 55.5t45.5 87.5t16 114.5t-16 114.5t-45.5 87.5t-71.5 55.5t-95 19.5t-95.5 -19.5t-72 -55.5t-45.5 -87.5t-16 -114.5zM389 766q-28 0 -52.5 9.5t-43 27t-28.5 43.5t-9 59h60q1 -11 4.5 -24t11.5 -23.5t22 -17.5t35 -7t35 7t22 17.5t11.5 23.5t4.5 24h60
q1 -33 -9 -59t-28.5 -43.5t-43 -27t-52.5 -9.5z" />
    <glyph glyph-name="obreve" unicode="&#x14f;" horiz-adv-x="590" 
d="M539 260q0 -62 -18 -112t-50.5 -86t-77.5 -55.5t-98 -19.5t-98 19.5t-77.5 55.5t-50.5 86t-18 112q0 61 18 111.5t50.5 86.5t77.5 55.5t98 19.5t98 -19.5t77.5 -55.5t50.5 -86.5t18 -111.5zM442 260q0 88 -39.5 139.5t-107.5 51.5t-107.5 -51.5t-39.5 -139.5t39.5 -139.5
t107.5 -51.5t107.5 51.5t39.5 139.5zM295 610q-28 0 -52.5 9.5t-43 27t-28.5 43.5t-9 59h60q1 -11 4.5 -24t11.5 -23.5t22 -17.5t35 -7t35 7t22 17.5t11.5 23.5t4.5 24h60q1 -33 -9 -59t-28.5 -43.5t-43 -27t-52.5 -9.5z" />
    <glyph glyph-name="Ohungarumlaut" unicode="&#x150;" horiz-adv-x="778" 
d="M58 347q0 89 26.5 157t72 113.5t106 68.5t128.5 23q67 0 126.5 -23t104.5 -68.5t71.5 -113.5t26.5 -157t-26.5 -157t-71.5 -113.5t-104.5 -68.5t-126.5 -23q-68 0 -128.5 23t-106 68.5t-72 113.5t-26.5 157zM160 347q0 -63 16 -114.5t45.5 -87.5t72 -55.5t95.5 -19.5
t95 19.5t71.5 55.5t45.5 87.5t16 114.5t-16 114.5t-45.5 87.5t-71.5 55.5t-95 19.5t-95.5 -19.5t-72 -55.5t-45.5 -87.5t-16 -114.5zM434 876l-123 -140l-48 36l115 160zM599 876l-123 -140l-48 36l115 160z" />
    <glyph glyph-name="ohungarumlaut" unicode="&#x151;" horiz-adv-x="590" 
d="M539 260q0 -62 -18 -112t-50.5 -86t-77.5 -55.5t-98 -19.5t-98 19.5t-77.5 55.5t-50.5 86t-18 112q0 61 18 111.5t50.5 86.5t77.5 55.5t98 19.5t98 -19.5t77.5 -55.5t50.5 -86.5t18 -111.5zM442 260q0 88 -39.5 139.5t-107.5 51.5t-107.5 -51.5t-39.5 -139.5t39.5 -139.5
t107.5 -51.5t107.5 51.5t39.5 139.5zM340 720l-123 -140l-48 36l115 160zM505 720l-123 -140l-48 36l115 160z" />
    <glyph glyph-name="Racute" unicode="&#x154;" horiz-adv-x="629" 
d="M425 290l40.5 -52.5t50.5 -72t51.5 -82.5t43.5 -83h-106q-20 38 -43.5 77t-47.5 74.5t-47.5 66.5l-42.5 54q-13 -1 -26.5 -1h-27.5h-87v-271h-97v683q41 10 91.5 13.5t92.5 3.5q146 0 222.5 -55t76.5 -164q0 -69 -36.5 -118t-107.5 -73zM278 615q-62 0 -95 -3v-261h69
q50 0 90 5t67.5 19t42.5 39.5t15 67.5q0 39 -15 65t-40.5 41t-60 21t-73.5 6zM415 873l-141 -137l-47 42l128 154z" />
    <glyph glyph-name="racute" unicode="&#x155;" horiz-adv-x="386" 
d="M272 531q12 0 27.5 -1.5t30.5 -4t27.5 -5t18.5 -4.5l-16 -81q-11 4 -36.5 9.5t-65.5 5.5q-26 0 -51.5 -5.5t-33.5 -7.5v-437h-93v498q33 12 82 22.5t110 10.5zM351 717l-141 -137l-47 42l128 154z" />
    <glyph glyph-name="Rcommaaccent" unicode="&#x156;" horiz-adv-x="629" 
d="M425 290l40.5 -52.5t50.5 -72t51.5 -82.5t43.5 -83h-106q-20 38 -43.5 77t-47.5 74.5t-47.5 66.5l-42.5 54q-13 -1 -26.5 -1h-27.5h-87v-271h-97v683q41 10 91.5 13.5t92.5 3.5q146 0 222.5 -55t76.5 -164q0 -69 -36.5 -118t-107.5 -73zM278 615q-62 0 -95 -3v-261h69
q50 0 90 5t67.5 19t42.5 39.5t15 67.5q0 39 -15 65t-40.5 41t-60 21t-73.5 6zM286 -50h89q1 -5 1 -11.5v-9.5q0 -32 -9.5 -54t-25.5 -36t-37.5 -20.5t-45.5 -6.5q-13 0 -23.5 1t-13.5 3v56q15 0 27.5 2t20.5 8.5t12.5 19.5t4.5 35v13z" />
    <glyph glyph-name="rcommaaccent" unicode="&#x157;" horiz-adv-x="386" 
d="M272 531q12 0 27.5 -1.5t30.5 -4t27.5 -5t18.5 -4.5l-16 -81q-11 4 -36.5 9.5t-65.5 5.5q-26 0 -51.5 -5.5t-33.5 -7.5v-437h-93v498q33 12 82 22.5t110 10.5zM83 -50h89q1 -5 1 -11.5v-9.5q0 -32 -9.5 -54t-25.5 -36t-37.5 -20.5t-45.5 -6.5q-13 0 -23.5 1t-13.5 3v56
q15 0 27.5 2t20.5 8.5t12.5 19.5t4.5 35v13z" />
    <glyph glyph-name="Rcaron" unicode="&#x158;" horiz-adv-x="629" 
d="M425 290l40.5 -52.5t50.5 -72t51.5 -82.5t43.5 -83h-106q-20 38 -43.5 77t-47.5 74.5t-47.5 66.5l-42.5 54q-13 -1 -26.5 -1h-27.5h-87v-271h-97v683q41 10 91.5 13.5t92.5 3.5q146 0 222.5 -55t76.5 -164q0 -69 -36.5 -118t-107.5 -73zM278 615q-62 0 -95 -3v-261h69
q50 0 90 5t67.5 19t42.5 39.5t15 67.5q0 39 -15 65t-40.5 41t-60 21t-73.5 6zM158 885l39 44l97 -88l97 88l39 -44l-136 -143z" />
    <glyph glyph-name="rcaron" unicode="&#x159;" horiz-adv-x="386" 
d="M272 531q12 0 27.5 -1.5t30.5 -4t27.5 -5t18.5 -4.5l-16 -81q-11 4 -36.5 9.5t-65.5 5.5q-26 0 -51.5 -5.5t-33.5 -7.5v-437h-93v498q33 12 82 22.5t110 10.5zM93 729l39 44l97 -88l97 88l39 -44l-136 -143z" />
    <glyph glyph-name="Sacute" unicode="&#x15a;" horiz-adv-x="532" 
d="M247 69q152 0 152 104q0 32 -13.5 54.5t-36.5 39t-52.5 28.5t-62.5 24q-38 13 -72 29.5t-59 39t-39.5 53.5t-14.5 75q0 91 62 142t171 51q63 0 114.5 -13.5t75.5 -29.5l-31 -79q-21 13 -62.5 25.5t-96.5 12.5q-28 0 -52 -6t-42 -18t-28.5 -30.5t-10.5 -43.5q0 -28 11 -47
t31 -33.5t46.5 -26.5t58.5 -24q45 -18 82.5 -36t65 -43t42.5 -59.5t15 -83.5q0 -91 -66.5 -140t-187.5 -49q-41 0 -75.5 5.5t-61.5 13t-46.5 16t-30.5 14.5l29 80q23 -13 70 -29t115 -16zM397 873l-141 -137l-47 42l128 154z" />
    <glyph glyph-name="sacute" unicode="&#x15b;" horiz-adv-x="446" 
d="M201 67q57 0 84.5 15t27.5 48q0 34 -27 54t-89 45q-30 12 -57.5 24.5t-47.5 29.5t-32 41t-12 59q0 69 51 109.5t139 40.5q22 0 44 -2.5t41 -6t33.5 -7.5t22.5 -7l-17 -80q-15 8 -47 16.5t-77 8.5q-39 0 -68 -15.5t-29 -48.5q0 -17 6.5 -30t20 -23.5t33.5 -19.5t48 -19
q37 -14 66 -27.5t49.5 -31.5t31.5 -43.5t11 -62.5q0 -72 -53.5 -109t-152.5 -37q-69 0 -108 11.5t-53 17.5l17 80q16 -6 51 -18t93 -12zM348 717l-141 -137l-47 42l128 154z" />
    <glyph glyph-name="Scircumflex" unicode="&#x15c;" horiz-adv-x="532" 
d="M247 69q152 0 152 104q0 32 -13.5 54.5t-36.5 39t-52.5 28.5t-62.5 24q-38 13 -72 29.5t-59 39t-39.5 53.5t-14.5 75q0 91 62 142t171 51q63 0 114.5 -13.5t75.5 -29.5l-31 -79q-21 13 -62.5 25.5t-96.5 12.5q-28 0 -52 -6t-42 -18t-28.5 -30.5t-10.5 -43.5q0 -28 11 -47
t31 -33.5t46.5 -26.5t58.5 -24q45 -18 82.5 -36t65 -43t42.5 -59.5t15 -83.5q0 -91 -66.5 -140t-187.5 -49q-41 0 -75.5 5.5t-61.5 13t-46.5 16t-30.5 14.5l29 80q23 -13 70 -29t115 -16zM276 925l136 -143l-39 -44l-97 88l-97 -88l-39 44z" />
    <glyph glyph-name="scircumflex" unicode="&#x15d;" horiz-adv-x="446" 
d="M201 67q57 0 84.5 15t27.5 48q0 34 -27 54t-89 45q-30 12 -57.5 24.5t-47.5 29.5t-32 41t-12 59q0 69 51 109.5t139 40.5q22 0 44 -2.5t41 -6t33.5 -7.5t22.5 -7l-17 -80q-15 8 -47 16.5t-77 8.5q-39 0 -68 -15.5t-29 -48.5q0 -17 6.5 -30t20 -23.5t33.5 -19.5t48 -19
q37 -14 66 -27.5t49.5 -31.5t31.5 -43.5t11 -62.5q0 -72 -53.5 -109t-152.5 -37q-69 0 -108 11.5t-53 17.5l17 80q16 -6 51 -18t93 -12zM227 769l136 -143l-39 -44l-97 88l-97 -88l-39 44z" />
    <glyph glyph-name="Scedilla" unicode="&#x15e;" horiz-adv-x="532" 
d="M247 69q152 0 152 104q0 32 -13.5 54.5t-36.5 39t-52.5 28.5t-62.5 24q-38 13 -72 29.5t-59 39t-39.5 53.5t-14.5 75q0 91 62 142t171 51q63 0 114.5 -13.5t75.5 -29.5l-31 -79q-21 13 -62.5 25.5t-96.5 12.5q-28 0 -52 -6t-42 -18t-28.5 -30.5t-10.5 -43.5q0 -28 11 -47
t31 -33.5t46.5 -26.5t58.5 -24q45 -18 82.5 -36t65 -43t42.5 -59.5t15 -83.5q0 -81 -53.5 -129t-153.5 -58l-11 -24q29 -14 42 -30.5t13 -48.5q0 -11 -5 -24t-17 -24t-32 -18t-49 -7q-26 0 -47.5 4t-34.5 9l11 57q12 -4 25.5 -7t30.5 -3q36 0 36 23q0 11 -11 18.5t-31 15.5
l-7 3q4 11 10 25.5t13 28.5q-38 1 -69.5 6.5t-56.5 13t-43 15.5t-28 14l29 80q23 -13 70 -29t115 -16z" />
    <glyph glyph-name="scedilla" unicode="&#x15f;" horiz-adv-x="446" 
d="M201 67q57 0 84.5 15t27.5 48q0 34 -27 54t-89 45q-30 12 -57.5 24.5t-47.5 29.5t-32 41t-12 59q0 69 51 109.5t139 40.5q22 0 44 -2.5t41 -6t33.5 -7.5t22.5 -7l-17 -80q-15 8 -47 16.5t-77 8.5q-39 0 -68 -15.5t-29 -48.5q0 -18 6.5 -30.5t20 -22.5t33.5 -19.5
t48 -19.5q36 -14 65 -27.5t50 -31.5t32 -43.5t11 -62.5q0 -62 -40 -98t-115 -45l-7.5 -15t-5.5 -13q29 -14 42 -30.5t13 -48.5q0 -11 -5 -24t-17 -24t-32 -18t-49 -7q-26 0 -47.5 4t-34.5 9l11 57q12 -4 25.5 -7t30.5 -3q36 0 36 23q0 11 -11 18.5t-31 15.5l-7 3
q4 12 10.5 27.5t13.5 29.5q-63 2 -98.5 12.5t-48.5 16.5l17 80q16 -6 51 -18t93 -12z" />
    <glyph glyph-name="uni0162" unicode="&#x162;" horiz-adv-x="565" 
d="M294 -37q29 -14 42 -30.5t13 -48.5q0 -11 -5 -24t-17 -24t-32 -18t-49 -7q-26 0 -47.5 4t-34.5 9l11 57q12 -4 25.5 -7t30.5 -3q36 0 36 23q0 11 -11 18.5t-31 15.5l-7 3q4 14 13 34t17 35h-14v609h-218v84h533v-84h-218v-609h-19l-10 -19.5t-8 -17.5z" />
    <glyph glyph-name="uni0163" unicode="&#x163;" horiz-adv-x="402" 
d="M263 -37q29 -14 42 -30.5t13 -48.5q0 -11 -5 -24t-17 -24t-32 -18t-49 -7q-26 0 -47.5 4t-34.5 9l11 57q12 -4 25.5 -7t30.5 -3q36 0 36 23q0 11 -11 18.5t-31 15.5l-7 3q4 13 10.5 29.5t14.5 31.5q-40 5 -66.5 21t-42.5 42t-22.5 62.5t-6.5 83.5v464l93 16v-161h197v-78
h-197v-240q0 -39 6 -64.5t18 -40t30 -20.5t42 -6q42 0 67.5 9.5t35.5 13.5l18 -77q-13 -6 -41.5 -15.5t-66.5 -11.5l-7.5 -14.5t-5.5 -12.5z" />
    <glyph glyph-name="Tcaron" unicode="&#x164;" horiz-adv-x="565" 
d="M549 693v-84h-218v-609h-97v609h-218v84h533zM146 885l39 44l97 -88l97 88l39 -44l-136 -143z" />
    <glyph glyph-name="tcaron" unicode="&#x165;" horiz-adv-x="402" 
d="M167 520h197v-78h-197v-240q0 -39 6 -64.5t18 -40t30 -20.5t42 -6q42 0 67.5 9.5t35.5 13.5l18 -77q-14 -7 -49 -17.5t-80 -10.5q-53 0 -87.5 13.5t-55.5 40.5t-29.5 66.5t-8.5 91.5v464l93 16v-161zM326 776l-27 -194h-62v194h89z" />
    <glyph glyph-name="Tbar" unicode="&#x166;" horiz-adv-x="565" 
d="M549 693v-84h-218v-216h130v-75h-130v-318h-97v318h-130v75h130v216h-218v84h533z" />
    <glyph glyph-name="tbar" unicode="&#x167;" horiz-adv-x="402" 
d="M167 520h197v-78h-197v-136h197v-70h-197v-34q0 -39 6 -64.5t18 -40t30 -20.5t42 -6q42 0 67.5 9.5t35.5 13.5l18 -77q-14 -7 -49 -17.5t-80 -10.5q-53 0 -87.5 13.5t-55.5 40.5t-29.5 66.5t-8.5 91.5v464l93 16v-161z" />
    <glyph glyph-name="Utilde" unicode="&#x168;" horiz-adv-x="688" 
d="M344 -15q-68 0 -118 21t-82 57.5t-47.5 86.5t-15.5 108v435h97v-424q0 -104 46 -151t120 -47q37 0 67.5 11.5t52.5 35.5t34 61.5t12 89.5v424h97v-435q0 -58 -15.5 -108t-48 -86.5t-82 -57.5t-117.5 -21zM509 867q-5 -12 -13.5 -28t-21.5 -29.5t-30.5 -23t-38.5 -9.5
q-20 0 -37.5 7t-33.5 15q-17 8 -29 12t-23 4q-17 0 -31.5 -14t-22.5 -30l-48 24q4 12 13 28t22 29.5t30.5 23t38.5 9.5q20 0 37.5 -7t33.5 -15q17 -8 29 -12t23 -4q17 0 31.5 14t22.5 30z" />
    <glyph glyph-name="utilde" unicode="&#x169;" 
d="M494 15q-32 -8 -84.5 -17t-121.5 -9q-60 0 -101 17.5t-66 49.5t-36 75.5t-11 96.5v292h93v-272q0 -95 30 -136t101 -41q15 0 31 1t30 2.5t25.5 3t16.5 3.5v439h93v-505zM451 711q-5 -12 -13.5 -28t-21.5 -29.5t-30.5 -23t-38.5 -9.5q-20 0 -37.5 7t-33.5 15q-17 8 -29 12
t-23 4q-17 0 -31.5 -14t-22.5 -30l-48 24q4 12 13 28t22 29.5t30.5 23t38.5 9.5q20 0 37.5 -7t33.5 -15q17 -8 29 -12t23 -4q17 0 31.5 14t22.5 30z" />
    <glyph glyph-name="Umacron" unicode="&#x16a;" horiz-adv-x="688" 
d="M344 -15q-68 0 -118 21t-82 57.5t-47.5 86.5t-15.5 108v435h97v-424q0 -104 46 -151t120 -47q37 0 67.5 11.5t52.5 35.5t34 61.5t12 89.5v424h97v-435q0 -58 -15.5 -108t-48 -86.5t-82 -57.5t-117.5 -21zM202 867h284v-72h-284v72z" />
    <glyph glyph-name="umacron" unicode="&#x16b;" 
d="M494 15q-32 -8 -84.5 -17t-121.5 -9q-60 0 -101 17.5t-66 49.5t-36 75.5t-11 96.5v292h93v-272q0 -95 30 -136t101 -41q15 0 31 1t30 2.5t25.5 3t16.5 3.5v439h93v-505zM142 711h284v-72h-284v72z" />
    <glyph glyph-name="Ubreve" unicode="&#x16c;" horiz-adv-x="688" 
d="M344 -15q-68 0 -118 21t-82 57.5t-47.5 86.5t-15.5 108v435h97v-424q0 -104 46 -151t120 -47q37 0 67.5 11.5t52.5 35.5t34 61.5t12 89.5v424h97v-435q0 -58 -15.5 -108t-48 -86.5t-82 -57.5t-117.5 -21zM344 766q-28 0 -52.5 9.5t-43 27t-28.5 43.5t-9 59h60
q1 -11 4.5 -24t11.5 -23.5t22 -17.5t35 -7t35 7t22 17.5t11.5 23.5t4.5 24h60q1 -33 -9 -59t-28.5 -43.5t-43 -27t-52.5 -9.5z" />
    <glyph glyph-name="ubreve" unicode="&#x16d;" 
d="M494 15q-32 -8 -84.5 -17t-121.5 -9q-60 0 -101 17.5t-66 49.5t-36 75.5t-11 96.5v292h93v-272q0 -95 30 -136t101 -41q15 0 31 1t30 2.5t25.5 3t16.5 3.5v439h93v-505zM284 610q-28 0 -52.5 9.5t-43 27t-28.5 43.5t-9 59h60q1 -11 4.5 -24t11.5 -23.5t22 -17.5t35 -7
t35 7t22 17.5t11.5 23.5t4.5 24h60q1 -33 -9 -59t-28.5 -43.5t-43 -27t-52.5 -9.5z" />
    <glyph glyph-name="Uring" unicode="&#x16e;" horiz-adv-x="688" 
d="M344 -15q-68 0 -118 21t-82 57.5t-47.5 86.5t-15.5 108v435h97v-424q0 -104 46 -151t120 -47q37 0 67.5 11.5t52.5 35.5t34 61.5t12 89.5v424h97v-435q0 -58 -15.5 -108t-48 -86.5t-82 -57.5t-117.5 -21zM447 833q0 -24 -8.5 -42.5t-22.5 -32t-32.5 -20.5t-39.5 -7
t-39.5 7t-32.5 20.5t-22.5 32t-8.5 42.5t8.5 42.5t22.5 32t32.5 20.5t39.5 7t39.5 -7t32.5 -20.5t22.5 -32t8.5 -42.5zM397 833q0 26 -15.5 40.5t-37.5 14.5t-37.5 -14.5t-15.5 -40.5t15.5 -40.5t37.5 -14.5t37.5 14.5t15.5 40.5z" />
    <glyph glyph-name="uring" unicode="&#x16f;" 
d="M494 15q-32 -8 -84.5 -17t-121.5 -9q-60 0 -101 17.5t-66 49.5t-36 75.5t-11 96.5v292h93v-272q0 -95 30 -136t101 -41q15 0 31 1t30 2.5t25.5 3t16.5 3.5v439h93v-505zM387 677q0 -24 -8.5 -42.5t-22.5 -32t-32.5 -20.5t-39.5 -7t-39.5 7t-32.5 20.5t-22.5 32t-8.5 42.5
t8.5 42.5t22.5 32t32.5 20.5t39.5 7t39.5 -7t32.5 -20.5t22.5 -32t8.5 -42.5zM337 677q0 26 -15.5 40.5t-37.5 14.5t-37.5 -14.5t-15.5 -40.5t15.5 -40.5t37.5 -14.5t37.5 14.5t15.5 40.5z" />
    <glyph glyph-name="Uhungarumlaut" unicode="&#x170;" horiz-adv-x="688" 
d="M344 -15q-68 0 -118 21t-82 57.5t-47.5 86.5t-15.5 108v435h97v-424q0 -104 46 -151t120 -47q37 0 67.5 11.5t52.5 35.5t34 61.5t12 89.5v424h97v-435q0 -58 -15.5 -108t-48 -86.5t-82 -57.5t-117.5 -21zM389 876l-123 -140l-48 36l115 160zM554 876l-123 -140l-48 36
l115 160z" />
    <glyph glyph-name="uhungarumlaut" unicode="&#x171;" 
d="M494 15q-32 -8 -84.5 -17t-121.5 -9q-60 0 -101 17.5t-66 49.5t-36 75.5t-11 96.5v292h93v-272q0 -95 30 -136t101 -41q15 0 31 1t30 2.5t25.5 3t16.5 3.5v439h93v-505zM329 720l-123 -140l-48 36l115 160zM494 720l-123 -140l-48 36l115 160z" />
    <glyph glyph-name="Uogonek" unicode="&#x172;" horiz-adv-x="688" 
d="M344 -15q-68 0 -118 21t-82 57.5t-47.5 86.5t-15.5 108v435h97v-424q0 -104 46 -151t120 -47q37 0 67.5 11.5t52.5 35.5t34 61.5t12 89.5v424h97v-435q0 -81 -29.5 -144t-92.5 -99l-41.5 -26t-33.5 -28q-14 -16 -21.5 -28t-7.5 -26q0 -29 40 -29q7 0 18.5 1.5t22.5 5.5
l7 -61q-11 -5 -28.5 -8t-37.5 -3q-56 0 -83 20.5t-27 55.5q0 28 18.5 53.5t37.5 42.5h-5z" />
    <glyph glyph-name="uogonek" unicode="&#x173;" 
d="M494 12q-12 -9 -26.5 -22t-29.5 -29q-14 -16 -23 -28t-9 -26q0 -29 40 -29q7 0 18.5 1.5t22.5 5.5l7 -61q-11 -5 -28.5 -8t-37.5 -3q-56 0 -83 20.5t-27 55.5q0 23 14 44.5t31 39.5q5 6 12.5 12t12.5 11q-23 -3 -47.5 -5t-52.5 -2q-60 0 -101 17.5t-66 49.5t-36 75.5
t-11 96.5v292h93v-272q0 -95 30 -136t101 -41q15 0 31 1t30 2.5t25.5 3t16.5 3.5v439h93v-508z" />
    <glyph glyph-name="Wcircumflex" unicode="&#x174;" horiz-adv-x="929" 
d="M465 470q-42 -134 -85 -248l-86 -222h-97q-53 153 -93.5 323t-75.5 370h102l29 -156t31 -151.5l32 -140.5t33 -124l85 230.5t84 259.5h84q39 -134 85 -259.5l86 -230.5q16 56 32 123t31.5 140.5t30.5 152l29 156.5h99q-36 -200 -76.5 -370t-92.5 -323h-97
q-44 108 -86 222t-84 248zM464 925l136 -143l-39 -44l-97 88l-97 -88l-39 44z" />
    <glyph glyph-name="wcircumflex" unicode="&#x175;" horiz-adv-x="777" 
d="M505 0q-28 72 -59.5 164.5t-57.5 192.5q-26 -100 -57 -192.5t-59 -164.5h-81q-46 103 -90 235t-83 285h100q10 -47 24 -102t29.5 -110t32.5 -106t32 -89q17 47 33.5 99.5t31.5 106l28.5 105t23.5 96.5h77q9 -45 22 -96.5t28 -105t31.5 -106t33.5 -99.5q15 38 31.5 89
t32.5 106t30 110t24 102h96q-39 -153 -83 -285t-90 -235h-81zM388 769l136 -143l-39 -44l-97 88l-97 -88l-39 44z" />
    <glyph glyph-name="Ycircumflex" unicode="&#x176;" horiz-adv-x="598" 
d="M251 0v278q-69 107 -130 211l-115 204h114q38 -82 85 -166.5t97 -162.5q49 78 96 162.5t86 166.5h108l-115 -203.5l-129 -209.5v-280h-97zM299 925l136 -143l-39 -44l-97 88l-97 -88l-39 44z" />
    <glyph glyph-name="ycircumflex" unicode="&#x177;" horiz-adv-x="497" 
d="M19 -97q11 -5 28.5 -9.5t34.5 -4.5q55 0 86 24.5t56 79.5q-63 120 -117.5 254.5t-90.5 272.5h100q11 -45 26.5 -97t34.5 -107t41 -110t46 -106q38 105 66 208t53 212h96q-36 -147 -80 -282.5t-95 -253.5q-20 -45 -41.5 -77.5t-47.5 -53.5t-58.5 -31t-73.5 -10
q-11 0 -23 1.5t-23.5 4t-21 5.5t-13.5 5zM261 769l136 -143l-39 -44l-97 88l-97 -88l-39 44z" />
    <glyph glyph-name="Zacute" unicode="&#x179;" horiz-adv-x="573" 
d="M526 616l-53.5 -62.5l-64.5 -81l-70 -94l-70.5 -100t-65.5 -100.5t-56 -95h390v-83h-503v65q21 40 49.5 88l61 98l67.5 101l69.5 98l67 88t59.5 72h-356v83h475v-77zM413 873l-141 -137l-47 42l128 154z" />
    <glyph glyph-name="zacute" unicode="&#x17a;" horiz-adv-x="471" 
d="M425 450q-21 -23 -55.5 -65l-74 -93l-79 -107t-69.5 -107h286v-78h-397v62q24 44 59 97t73.5 105.5l75 99l63.5 78.5h-257v78h375v-70zM352 717l-141 -137l-47 42l128 154z" />
    <glyph glyph-name="Zdotaccent" unicode="&#x17b;" horiz-adv-x="573" 
d="M526 616l-53.5 -62.5l-64.5 -81l-70 -94l-70.5 -100t-65.5 -100.5t-56 -95h390v-83h-503v65q21 40 49.5 88l61 98l67.5 101l69.5 98l67 88t59.5 72h-356v83h475v-77zM292 770q-25 0 -42.5 16.5t-17.5 44.5t17.5 44.5t42.5 16.5t42.5 -16.5t17.5 -44.5t-17.5 -44.5
t-42.5 -16.5z" />
    <glyph glyph-name="zdotaccent" unicode="&#x17c;" horiz-adv-x="471" 
d="M425 450q-21 -23 -55.5 -65l-74 -93l-79 -107t-69.5 -107h286v-78h-397v62q24 44 59 97t73.5 105.5l75 99l63.5 78.5h-257v78h375v-70zM231 614q-25 0 -42.5 16.5t-17.5 44.5t17.5 44.5t42.5 16.5t42.5 -16.5t17.5 -44.5t-17.5 -44.5t-42.5 -16.5z" />
    <glyph glyph-name="Zcaron" unicode="&#x17d;" horiz-adv-x="573" 
d="M526 616l-53.5 -62.5l-64.5 -81l-70 -94l-70.5 -100t-65.5 -100.5t-56 -95h390v-83h-503v65q21 40 49.5 88l61 98l67.5 101l69.5 98l67 88t59.5 72h-356v83h475v-77zM156 885l39 44l97 -88l97 88l39 -44l-136 -143z" />
    <glyph glyph-name="zcaron" unicode="&#x17e;" horiz-adv-x="471" 
d="M425 450q-21 -23 -55.5 -65l-74 -93l-79 -107t-69.5 -107h286v-78h-397v62q24 44 59 97t73.5 105.5l75 99l63.5 78.5h-257v78h375v-70zM95 729l39 44l97 -88l97 88l39 -44l-136 -143z" />
    <glyph glyph-name="longs" unicode="&#x17f;" horiz-adv-x="273" 
d="M283 776q41 0 70.5 -6t41.5 -11l-17 -80q-12 6 -34 11.5t-54 5.5q-65 0 -91 -35.5t-26 -95.5v-565h-93v567q0 100 49 154.5t154 54.5z" />
    <glyph glyph-name="Scommaaccent" unicode="&#x218;" horiz-adv-x="532" 
d="M247 69q152 0 152 104q0 32 -13.5 54.5t-36.5 39t-52.5 28.5t-62.5 24q-38 13 -72 29.5t-59 39t-39.5 53.5t-14.5 75q0 91 62 142t171 51q63 0 114.5 -13.5t75.5 -29.5l-31 -79q-21 13 -62.5 25.5t-96.5 12.5q-28 0 -52 -6t-42 -18t-28.5 -30.5t-10.5 -43.5q0 -28 11 -47
t31 -33.5t46.5 -26.5t58.5 -24q45 -18 82.5 -36t65 -43t42.5 -59.5t15 -83.5q0 -91 -66.5 -140t-187.5 -49q-41 0 -75.5 5.5t-61.5 13t-46.5 16t-30.5 14.5l29 80q23 -13 70 -29t115 -16zM222 -50h89q1 -5 1 -11.5v-9.5q0 -32 -9.5 -54t-25.5 -36t-37.5 -20.5t-45.5 -6.5
q-13 0 -23.5 1t-13.5 3v56q15 0 27.5 2t20.5 8.5t12.5 19.5t4.5 35v13z" />
    <glyph glyph-name="scommaaccent" unicode="&#x219;" horiz-adv-x="446" 
d="M201 67q57 0 84.5 15t27.5 48q0 34 -27 54t-89 45q-30 12 -57.5 24.5t-47.5 29.5t-32 41t-12 59q0 69 51 109.5t139 40.5q22 0 44 -2.5t41 -6t33.5 -7.5t22.5 -7l-17 -80q-15 8 -47 16.5t-77 8.5q-39 0 -68 -15.5t-29 -48.5q0 -17 6.5 -30t20 -23.5t33.5 -19.5t48 -19
q37 -14 66 -27.5t49.5 -31.5t31.5 -43.5t11 -62.5q0 -72 -53.5 -109t-152.5 -37q-69 0 -108 11.5t-53 17.5l17 80q16 -6 51 -18t93 -12zM171 -50h89q1 -5 1 -11.5v-9.5q0 -32 -9.5 -54t-25.5 -36t-37.5 -20.5t-45.5 -6.5q-13 0 -23.5 1t-13.5 3v56q15 0 27.5 2t20.5 8.5
t12.5 19.5t4.5 35v13z" />
    <glyph glyph-name="uni021A" unicode="&#x21a;" horiz-adv-x="565" 
d="M549 693v-84h-218v-609h-97v609h-218v84h533zM241 -50h89q1 -5 1 -11.5v-9.5q0 -32 -9.5 -54t-25.5 -36t-37.5 -20.5t-45.5 -6.5q-13 0 -23.5 1t-13.5 3v56q15 0 27.5 2t20.5 8.5t12.5 19.5t4.5 35v13z" />
    <glyph glyph-name="uni021B" unicode="&#x21b;" horiz-adv-x="402" 
d="M167 520h197v-78h-197v-240q0 -39 6 -64.5t18 -40t30 -20.5t42 -6q42 0 67.5 9.5t35.5 13.5l18 -77q-14 -7 -49 -17.5t-80 -10.5q-53 0 -87.5 13.5t-55.5 40.5t-29.5 66.5t-8.5 91.5v464l93 16v-161zM189 -50h89q1 -5 1 -11.5v-9.5q0 -32 -9.5 -54t-25.5 -36t-37.5 -20.5
t-45.5 -6.5q-13 0 -23.5 1t-13.5 3v56q15 0 27.5 2t20.5 8.5t12.5 19.5t4.5 35v13z" />
    <glyph glyph-name="dotlessj" unicode="&#x237;" horiz-adv-x="253" 
d="M-5 -185q-12 0 -31 3t-32 8l12 76q10 -3 23 -5t24 -2q48 0 68.5 29.5t20.5 86.5v509h93v-508q0 -100 -45.5 -148.5t-132.5 -48.5z" />
    <glyph glyph-name="apostrophe" unicode="&#x2bc;" horiz-adv-x="376" 
d="M246 776v-18.5t-1 -17.5q-4 -51 -21 -93.5t-41 -80.5l-67 23q19 38 27.5 74.5t8.5 74.5q0 10 -0.5 21t-1.5 17h96z" />
    <glyph glyph-name="caron" unicode="&#x2c7;" horiz-adv-x="376" 
d="M52 729l39 44l97 -88l97 88l39 -44l-136 -143z" />
    <glyph glyph-name="uni02C9" unicode="&#x2c9;" horiz-adv-x="376" 
d="M46 711h284v-72h-284v72z" />
    <glyph glyph-name="breve" unicode="&#x2d8;" horiz-adv-x="376" 
d="M191 610q-28 0 -52.5 9.5t-43 27t-28.5 43.5t-9 59h60q1 -11 4.5 -24t11.5 -23.5t22 -17.5t35 -7t35 7t22 17.5t11.5 23.5t4.5 24h60q1 -33 -9 -59t-28.5 -43.5t-43 -27t-52.5 -9.5z" />
    <glyph glyph-name="dotaccent" unicode="&#x2d9;" horiz-adv-x="376" 
d="M188 614q-25 0 -42.5 16.5t-17.5 44.5t17.5 44.5t42.5 16.5t42.5 -16.5t17.5 -44.5t-17.5 -44.5t-42.5 -16.5z" />
    <glyph glyph-name="ring" unicode="&#x2da;" horiz-adv-x="376" 
d="M291 677q0 -24 -8.5 -42.5t-22.5 -32t-32.5 -20.5t-39.5 -7t-39.5 7t-32.5 20.5t-22.5 32t-8.5 42.5t8.5 42.5t22.5 32t32.5 20.5t39.5 7t39.5 -7t32.5 -20.5t22.5 -32t8.5 -42.5zM241 677q0 26 -15.5 40.5t-37.5 14.5t-37.5 -14.5t-15.5 -40.5t15.5 -40.5t37.5 -14.5
t37.5 14.5t15.5 40.5z" />
    <glyph glyph-name="ogonek" unicode="&#x2db;" horiz-adv-x="376" 
d="M181 -187q-56 0 -83 20.5t-27 55.5q0 23 13 44.5t30 39.5q12 13 21.5 21.5t17.5 13.5h93l-25.5 -19.5t-29.5 -27.5q-14 -16 -23 -28t-9 -26q0 -29 40 -29q7 0 18.5 1.5t22.5 5.5l7 -61q-11 -5 -28.5 -8t-37.5 -3z" />
    <glyph glyph-name="hungarumlaut" unicode="&#x2dd;" horiz-adv-x="376" 
d="M207 720l-123 -140l-48 36l115 160zM372 720l-123 -140l-48 36l115 160z" />
    <glyph glyph-name="Wgrave" unicode="&#x1e80;" horiz-adv-x="929" 
d="M465 470q-42 -134 -85 -248l-86 -222h-97q-53 153 -93.5 323t-75.5 370h102l29 -156t31 -151.5l32 -140.5t33 -124l85 230.5t84 259.5h84q39 -134 85 -259.5l86 -230.5q16 56 32 123t31.5 140.5t30.5 152l29 156.5h99q-36 -200 -76.5 -370t-92.5 -323h-97
q-44 108 -86 222t-84 248zM404 932l128 -154l-47 -42l-141 137z" />
    <glyph glyph-name="wgrave" unicode="&#x1e81;" horiz-adv-x="777" 
d="M505 0q-28 72 -59.5 164.5t-57.5 192.5q-26 -100 -57 -192.5t-59 -164.5h-81q-46 103 -90 235t-83 285h100q10 -47 24 -102t29.5 -110t32.5 -106t32 -89q17 47 33.5 99.5t31.5 106l28.5 105t23.5 96.5h77q9 -45 22 -96.5t28 -105t31.5 -106t33.5 -99.5q15 38 31.5 89
t32.5 106t30 110t24 102h96q-39 -153 -83 -285t-90 -235h-81zM328 776l128 -154l-47 -42l-141 137z" />
    <glyph glyph-name="Wacute" unicode="&#x1e82;" horiz-adv-x="929" 
d="M465 470q-42 -134 -85 -248l-86 -222h-97q-53 153 -93.5 323t-75.5 370h102l29 -156t31 -151.5l32 -140.5t33 -124l85 230.5t84 259.5h84q39 -134 85 -259.5l86 -230.5q16 56 32 123t31.5 140.5t30.5 152l29 156.5h99q-36 -200 -76.5 -370t-92.5 -323h-97
q-44 108 -86 222t-84 248zM585 873l-141 -137l-47 42l128 154z" />
    <glyph glyph-name="wacute" unicode="&#x1e83;" horiz-adv-x="777" 
d="M505 0q-28 72 -59.5 164.5t-57.5 192.5q-26 -100 -57 -192.5t-59 -164.5h-81q-46 103 -90 235t-83 285h100q10 -47 24 -102t29.5 -110t32.5 -106t32 -89q17 47 33.5 99.5t31.5 106l28.5 105t23.5 96.5h77q9 -45 22 -96.5t28 -105t31.5 -106t33.5 -99.5q15 38 31.5 89
t32.5 106t30 110t24 102h96q-39 -153 -83 -285t-90 -235h-81zM509 717l-141 -137l-47 42l128 154z" />
    <glyph glyph-name="Wdieresis" unicode="&#x1e84;" horiz-adv-x="929" 
d="M465 470q-42 -134 -85 -248l-86 -222h-97q-53 153 -93.5 323t-75.5 370h102l29 -156t31 -151.5l32 -140.5t33 -124l85 230.5t84 259.5h84q39 -134 85 -259.5l86 -230.5q16 56 32 123t31.5 140.5t30.5 152l29 156.5h99q-36 -200 -76.5 -370t-92.5 -323h-97
q-44 108 -86 222t-84 248zM369 772q-23 0 -40.5 16.5t-17.5 42.5t17.5 42.5t40.5 16.5t40.5 -16.5t17.5 -42.5t-17.5 -42.5t-40.5 -16.5zM559 772q-23 0 -40.5 16.5t-17.5 42.5t17.5 42.5t40.5 16.5t40.5 -16.5t17.5 -42.5t-17.5 -42.5t-40.5 -16.5z" />
    <glyph glyph-name="wdieresis" unicode="&#x1e85;" horiz-adv-x="777" 
d="M505 0q-28 72 -59.5 164.5t-57.5 192.5q-26 -100 -57 -192.5t-59 -164.5h-81q-46 103 -90 235t-83 285h100q10 -47 24 -102t29.5 -110t32.5 -106t32 -89q17 47 33.5 99.5t31.5 106l28.5 105t23.5 96.5h77q9 -45 22 -96.5t28 -105t31.5 -106t33.5 -99.5q15 38 31.5 89
t32.5 106t30 110t24 102h96q-39 -153 -83 -285t-90 -235h-81zM293 616q-23 0 -40.5 16.5t-17.5 42.5t17.5 42.5t40.5 16.5t40.5 -16.5t17.5 -42.5t-17.5 -42.5t-40.5 -16.5zM483 616q-23 0 -40.5 16.5t-17.5 42.5t17.5 42.5t40.5 16.5t40.5 -16.5t17.5 -42.5t-17.5 -42.5
t-40.5 -16.5z" />
    <glyph glyph-name="Ygrave" unicode="&#x1ef2;" horiz-adv-x="598" 
d="M251 0v278q-69 107 -130 211l-115 204h114q38 -82 85 -166.5t97 -162.5q49 78 96 162.5t86 166.5h108l-115 -203.5l-129 -209.5v-280h-97zM239 932l128 -154l-47 -42l-141 137z" />
    <glyph glyph-name="ygrave" unicode="&#x1ef3;" horiz-adv-x="497" 
d="M19 -97q11 -5 28.5 -9.5t34.5 -4.5q55 0 86 24.5t56 79.5q-63 120 -117.5 254.5t-90.5 272.5h100q11 -45 26.5 -97t34.5 -107t41 -110t46 -106q38 105 66 208t53 212h96q-36 -147 -80 -282.5t-95 -253.5q-20 -45 -41.5 -77.5t-47.5 -53.5t-58.5 -31t-73.5 -10
q-11 0 -23 1.5t-23.5 4t-21 5.5t-13.5 5zM201 776l128 -154l-47 -42l-141 137z" />
    <glyph glyph-name="fraction" unicode="&#x2044;" horiz-adv-x="148" 
d="M311 693l-391 -693h-87l391 693h87z" />
    <glyph glyph-name="zerosuperior" unicode="&#x2070;" horiz-adv-x="359" 
d="M29 508q0 97 40 149t110 52t110 -52t40 -149t-40 -149t-110 -52t-110 52t-40 149zM255 508q0 28 -3.5 53.5t-12.5 44.5t-23.5 30t-36.5 11t-36.5 -11t-23.5 -30t-13 -44.5t-4 -53.5q0 -29 4 -54t13 -44t23.5 -30t36.5 -11t36.5 11t23.5 30t12.5 44t3.5 54z" />
    <glyph glyph-name="foursuperior" unicode="&#x2074;" horiz-adv-x="359" 
d="M285 701v-234h50v-59h-50v-93h-68v93h-193v46q14 25 36 57t48 66t55 66.5t58 57.5h64zM217 618q-31 -32 -63 -72.5t-55 -78.5h118v151z" />
    <glyph glyph-name="fivesuperior" unicode="&#x2075;" horiz-adv-x="359" 
d="M318 429q0 -53 -40 -87.5t-124 -34.5q-32 0 -64.5 7t-49.5 16l15 60q15 -6 40.5 -13.5t56.5 -7.5q53 0 73.5 17.5t20.5 40.5q0 17 -8.5 31t-29 23.5t-54.5 15t-86 5.5q7 50 11.5 101t6.5 98h216v-63h-156q-2 -20 -3 -40t-5 -41q94 -5 137 -37.5t43 -90.5z" />
    <glyph glyph-name="sixsuperior" unicode="&#x2076;" horiz-adv-x="359" 
d="M37 471q0 55 18 98t52 72.5t81.5 45t107.5 16.5l6 -61q-33 -1 -63.5 -7.5t-55.5 -18.5t-42.5 -30t-24.5 -41q20 8 38.5 11t34.5 3q38 0 65 -10t43.5 -27.5t24 -39.5t7.5 -46q0 -22 -8 -45t-25.5 -41.5t-44 -30.5t-62.5 -12q-75 0 -113.5 43.5t-38.5 120.5zM183 501
q-20 0 -39.5 -3.5t-37.5 -9.5q-2 -55 16 -88.5t66 -33.5q19 0 32 6.5t21 17t12 22.5t4 23q0 32 -18 49t-56 17z" />
    <glyph glyph-name="sevensuperior" unicode="&#x2077;" horiz-adv-x="359" 
d="M95 315q4 42 17 87.5t32.5 88.5t43 80.5t47.5 64.5h-198v65h286v-55q-21 -21 -46 -56.5t-47.5 -80t-39.5 -94.5t-21 -100h-74z" />
    <glyph glyph-name="eightsuperior" unicode="&#x2078;" horiz-adv-x="359" 
d="M326 420q0 -50 -38 -81.5t-110 -31.5q-42 0 -70 10.5t-45 26.5t-24 35.5t-7 37.5q0 28 18 52.5t42 39.5q-23 17 -36.5 40.5t-13.5 49.5q0 22 9.5 42t27.5 35t43 24t56 9q36 0 62 -10t42.5 -25t24 -33.5t7.5 -36.5q0 -28 -14.5 -50.5t-37.5 -38.5q36 -17 49 -40t15 -55z
M102 417q0 -8 4 -17t13 -16.5t23.5 -12.5t35.5 -5q41 0 58.5 15.5t17.5 35.5q0 28 -28.5 43.5t-79.5 27.5q-20 -15 -32 -32t-12 -39zM245 605q0 13 -15 29t-52 16t-52 -16t-15 -31q0 -20 21 -39t68 -28q20 14 32.5 30t12.5 39z" />
    <glyph glyph-name="ninesuperior" unicode="&#x2079;" horiz-adv-x="359" 
d="M323 545q0 -112 -69 -172t-199 -60l-2 61q73 2 125 26t66 71q-20 -8 -38.5 -11t-34.5 -3q-38 0 -65 10t-43.5 27.5t-24 39.5t-7.5 46q0 22 8 44.5t25.5 41.5t44 31t62.5 12q75 0 113.5 -43.5t38.5 -120.5zM177 516q20 0 39.5 2.5t37.5 8.5q2 55 -16 89t-66 34
q-19 0 -32 -6.5t-21.5 -17t-12 -22.5t-3.5 -23q0 -65 74 -65z" />
    <glyph glyph-name="zeroinferior" unicode="&#x2080;" horiz-adv-x="359" 
d="M29 194q0 97 40 149t110 52t110 -52t40 -149t-40 -149t-110 -52t-110 52t-40 149zM255 194q0 28 -3.5 53.5t-12.5 44.5t-23.5 30t-36.5 11t-36.5 -11t-23.5 -30t-13 -44.5t-4 -53.5q0 -29 4 -54t13 -44t23.5 -30t36.5 -11t36.5 11t23.5 30t12.5 44t3.5 54z" />
    <glyph glyph-name="oneinferior" unicode="&#x2081;" horiz-adv-x="359" 
d="M50 307q38 13 75 33.5t64 46.5h49v-386h-70v294q-22 -14 -50.5 -25t-48.5 -17z" />
    <glyph glyph-name="twoinferior" unicode="&#x2082;" horiz-adv-x="359" 
d="M296 284q0 -21 -9.5 -41t-25.5 -39.5t-37 -39l-45 -40.5q-17 -14 -33.5 -30.5t-19.5 -29.5h186v-63h-266q-3 33 4.5 58.5t22 46.5t33.5 38.5l40 35.5q34 29 55.5 53.5t21.5 48.5q0 26 -16.5 38t-45.5 12q-17 0 -32 -4.5t-27 -11t-21.5 -13t-14.5 -10.5l-36 49
q17 18 51.5 35.5t79.5 17.5q69 0 102 -29t33 -82z" />
    <glyph glyph-name="threeinferior" unicode="&#x2083;" horiz-adv-x="359" 
d="M144 55q53 0 73 16.5t20 42.5q0 17 -9 29t-24.5 19.5t-35.5 11t-41 3.5h-19v57h25q14 0 29.5 2.5t28 8.5t20.5 16.5t8 25.5q0 25 -18.5 35.5t-47.5 10.5q-27 0 -50 -9.5t-40 -17.5l-25 55q16 11 49.5 22.5t67.5 11.5q73 0 103.5 -29.5t30.5 -75.5q0 -49 -55 -80
q35 -11 55.5 -36.5t20.5 -60.5q0 -26 -9 -47.5t-29 -38t-51.5 -25.5t-75.5 -9q-31 0 -63 7t-50 16l15 60q22 -8 46.5 -14.5t50.5 -6.5z" />
    <glyph glyph-name="fourinferior" unicode="&#x2084;" horiz-adv-x="359" 
d="M285 387v-234h50v-59h-50v-93h-68v93h-193v46q14 25 36 57t48 66t55 66.5t58 57.5h64zM217 304q-31 -32 -63 -72.5t-55 -78.5h118v151z" />
    <glyph glyph-name="fiveinferior" unicode="&#x2085;" horiz-adv-x="359" 
d="M318 115q0 -53 -40 -87.5t-124 -34.5q-32 0 -64.5 7t-49.5 16l15 60q15 -6 40.5 -13.5t56.5 -7.5q53 0 73.5 17.5t20.5 40.5q0 17 -8.5 31t-29 23.5t-54.5 15t-86 5.5q7 50 11.5 101t6.5 98h216v-63h-156q-2 -20 -3 -40t-5 -41q94 -5 137 -37.5t43 -90.5z" />
    <glyph glyph-name="sixinferior" unicode="&#x2086;" horiz-adv-x="359" 
d="M37 157q0 55 18 98t52 72.5t81.5 45t107.5 16.5l6 -61q-33 -1 -63.5 -7.5t-55.5 -18.5t-42.5 -30t-24.5 -41q20 8 38.5 11t34.5 3q38 0 65 -10t43.5 -27.5t24 -39.5t7.5 -46q0 -22 -8 -45t-25.5 -41.5t-44 -30.5t-62.5 -12q-75 0 -113.5 43.5t-38.5 120.5zM183 187
q-20 0 -39.5 -3.5t-37.5 -9.5q-2 -55 16 -88.5t66 -33.5q19 0 32 6.5t21 17t12 22.5t4 23q0 32 -18 49t-56 17z" />
    <glyph glyph-name="seveninferior" unicode="&#x2087;" horiz-adv-x="359" 
d="M95 1q4 42 17 87.5t32.5 88.5t43 80.5t47.5 64.5h-198v65h286v-55q-21 -21 -46 -56.5t-47.5 -80t-39.5 -94.5t-21 -100h-74z" />
    <glyph glyph-name="eightinferior" unicode="&#x2088;" horiz-adv-x="359" 
d="M326 106q0 -50 -38 -81.5t-110 -31.5q-42 0 -70 10.5t-45 26.5t-24 35.5t-7 37.5q0 28 18 52.5t42 39.5q-23 17 -36.5 40.5t-13.5 49.5q0 22 9.5 42t27.5 35t43 24t56 9q36 0 62 -10t42.5 -25t24 -33.5t7.5 -36.5q0 -28 -14.5 -50.5t-37.5 -38.5q36 -17 49 -40t15 -55z
M102 103q0 -8 4 -17t13 -16.5t23.5 -12.5t35.5 -5q41 0 58.5 15.5t17.5 35.5q0 28 -28.5 43.5t-79.5 27.5q-20 -15 -32 -32t-12 -39zM245 291q0 13 -15 29t-52 16t-52 -16t-15 -31q0 -20 21 -39t68 -28q20 14 32.5 30t12.5 39z" />
    <glyph glyph-name="nineinferior" unicode="&#x2089;" horiz-adv-x="359" 
d="M323 231q0 -112 -69 -172t-199 -60l-2 61q73 2 125 26t66 71q-20 -8 -38.5 -11t-34.5 -3q-38 0 -65 10t-43.5 27.5t-24 39.5t-7.5 46q0 22 8 44.5t25.5 41.5t44 31t62.5 12q75 0 113.5 -43.5t38.5 -120.5zM177 202q20 0 39.5 2.5t37.5 8.5q2 55 -16 89t-66 34
q-19 0 -32 -6.5t-21.5 -17t-12 -22.5t-3.5 -23q0 -65 74 -65z" />
    <glyph glyph-name="afii61289" unicode="&#x2113;" horiz-adv-x="450" 
d="M108 255v289q0 69 13.5 114t36.5 71t52.5 36.5t62.5 10.5q42 0 68.5 -16t41.5 -40.5t20 -55t5 -59.5q0 -53 -15 -101.5t-42 -93t-65.5 -86t-85.5 -80.5v-44q0 -69 23.5 -101.5t74.5 -32.5q32 0 53.5 12t38.5 25l37 -69q-25 -22 -61 -35.5t-84 -13.5q-50 0 -83 15
t-53.5 40t-29 58t-8.5 69v8l-66 -47l-36 53zM200 327q63 58 99.5 126t36.5 153q0 17 -2 33.5t-9 30t-19 22t-31 8.5q-15 0 -28.5 -6t-24 -22.5t-16.5 -46t-6 -77.5v-221z" />
    <glyph glyph-name="estimated" unicode="&#x212e;" horiz-adv-x="932" 
d="M217 337q-5 0 -5 -4v-197q0 -13 9 -22q48 -51 110 -79t135 -28q79 0 145 32.5t114 86.5h57q-26 -32 -60.5 -57.5t-75.5 -43.5t-87 -28t-94 -10q-83 0 -156 28.5t-127 77t-85.5 114t-31.5 140.5t31.5 140.5t85.5 114.5t127 77.5t156 28.5t156.5 -28.5t128 -77.5t86 -114.5
t31.5 -140.5v-10h-650zM719 560q0 13 -9 24q-48 48 -110 75t-134 27q-71 0 -134 -29t-110 -77q-5 -4 -7.5 -10.5t-2.5 -13.5v-193q0 -7 5 -7h498q4 0 4 7v197z" />
    <glyph glyph-name="onethird" unicode="&#x2153;" horiz-adv-x="874" 
d="M50 621q38 13 75 33.5t64 46.5h49v-386h-70v294q-22 -14 -50.5 -25t-48.5 -17zM653 693l-391 -693h-87l391 693h87zM659 56q53 0 73 16.5t20 42.5q0 17 -9 29t-24.5 19.5t-35.5 11t-41 3.5h-19v57h25q14 0 29.5 2.5t28 8.5t20.5 16.5t8 25.5q0 25 -18.5 35.5t-47.5 10.5
q-27 0 -50 -9.5t-40 -17.5l-25 55q16 11 49.5 22.5t67.5 11.5q73 0 103.5 -29.5t30.5 -75.5q0 -49 -55 -80q35 -11 55.5 -36.5t20.5 -60.5q0 -26 -9 -47.5t-29 -38t-51.5 -25.5t-75.5 -9q-31 0 -63 7t-50 16l15 60q22 -8 46.5 -14.5t50.5 -6.5z" />
    <glyph glyph-name="twothirds" unicode="&#x2154;" horiz-adv-x="874" 
d="M296 598q0 -21 -9.5 -41t-25.5 -39.5t-37 -39l-45 -40.5q-17 -14 -33.5 -30.5t-19.5 -29.5h186v-63h-266q-3 33 4.5 58.5t22 46.5t33.5 38.5l40 35.5q34 29 55.5 53.5t21.5 48.5q0 26 -16.5 38t-45.5 12q-17 0 -32 -4.5t-27 -11t-21.5 -13t-14.5 -10.5l-36 49
q17 18 51.5 35.5t79.5 17.5q69 0 102 -29t33 -82zM674 693l-391 -693h-87l391 693h87zM659 56q53 0 73 16.5t20 42.5q0 17 -9 29t-24.5 19.5t-35.5 11t-41 3.5h-19v57h25q14 0 29.5 2.5t28 8.5t20.5 16.5t8 25.5q0 25 -18.5 35.5t-47.5 10.5q-27 0 -50 -9.5t-40 -17.5
l-25 55q16 11 49.5 22.5t67.5 11.5q73 0 103.5 -29.5t30.5 -75.5q0 -49 -55 -80q35 -11 55.5 -36.5t20.5 -60.5q0 -26 -9 -47.5t-29 -38t-51.5 -25.5t-75.5 -9q-31 0 -63 7t-50 16l15 60q22 -8 46.5 -14.5t50.5 -6.5z" />
    <glyph glyph-name="oneeighth" unicode="&#x215b;" horiz-adv-x="874" 
d="M50 621q38 13 75 33.5t64 46.5h49v-386h-70v294q-22 -14 -50.5 -25t-48.5 -17zM653 693l-391 -693h-87l391 693h87zM841 107q0 -50 -38 -81.5t-110 -31.5q-42 0 -70 10.5t-45 26.5t-24 35.5t-7 37.5q0 28 18 52.5t42 39.5q-23 17 -36.5 40.5t-13.5 49.5q0 22 9.5 42
t27.5 35t43 24t56 9q36 0 62 -10t42.5 -25t24 -33.5t7.5 -36.5q0 -28 -14.5 -50.5t-37.5 -38.5q36 -17 49 -40t15 -55zM617 104q0 -8 4 -17t13 -16.5t23.5 -12.5t35.5 -5q41 0 58.5 15.5t17.5 35.5q0 28 -28.5 43.5t-79.5 27.5q-20 -15 -32 -32t-12 -39zM760 292
q0 13 -15 29t-52 16t-52 -16t-15 -31q0 -20 21 -39t68 -28q20 14 32.5 30t12.5 39z" />
    <glyph glyph-name="threeeighths" unicode="&#x215c;" horiz-adv-x="874" 
d="M144 369q53 0 73 16.5t20 42.5q0 17 -9 29t-24.5 19.5t-35.5 11t-41 3.5h-19v57h25q14 0 29.5 2.5t28 8.5t20.5 16.5t8 25.5q0 25 -18.5 35.5t-47.5 10.5q-27 0 -50 -9.5t-40 -17.5l-25 55q16 11 49.5 22.5t67.5 11.5q73 0 103.5 -29.5t30.5 -75.5q0 -49 -55 -80
q35 -11 55.5 -36.5t20.5 -60.5q0 -26 -9 -47.5t-29 -38t-51.5 -25.5t-75.5 -9q-31 0 -63 7t-50 16l15 60q22 -8 46.5 -14.5t50.5 -6.5zM674 693l-391 -693h-87l391 693h87zM841 107q0 -50 -38 -81.5t-110 -31.5q-42 0 -70 10.5t-45 26.5t-24 35.5t-7 37.5q0 28 18 52.5
t42 39.5q-23 17 -36.5 40.5t-13.5 49.5q0 22 9.5 42t27.5 35t43 24t56 9q36 0 62 -10t42.5 -25t24 -33.5t7.5 -36.5q0 -28 -14.5 -50.5t-37.5 -38.5q36 -17 49 -40t15 -55zM617 104q0 -8 4 -17t13 -16.5t23.5 -12.5t35.5 -5q41 0 58.5 15.5t17.5 35.5q0 28 -28.5 43.5
t-79.5 27.5q-20 -15 -32 -32t-12 -39zM760 292q0 13 -15 29t-52 16t-52 -16t-15 -31q0 -20 21 -39t68 -28q20 14 32.5 30t12.5 39z" />
    <glyph glyph-name="fiveeighths" unicode="&#x215d;" horiz-adv-x="874" 
d="M318 429q0 -53 -40 -87.5t-124 -34.5q-32 0 -64.5 7t-49.5 16l15 60q15 -6 40.5 -13.5t56.5 -7.5q53 0 73.5 17.5t20.5 40.5q0 17 -8.5 31t-29 23.5t-54.5 15t-86 5.5q7 50 11.5 101t6.5 98h216v-63h-156q-2 -20 -3 -40t-5 -41q94 -5 137 -37.5t43 -90.5zM674 693
l-391 -693h-87l391 693h87zM841 107q0 -50 -38 -81.5t-110 -31.5q-42 0 -70 10.5t-45 26.5t-24 35.5t-7 37.5q0 28 18 52.5t42 39.5q-23 17 -36.5 40.5t-13.5 49.5q0 22 9.5 42t27.5 35t43 24t56 9q36 0 62 -10t42.5 -25t24 -33.5t7.5 -36.5q0 -28 -14.5 -50.5t-37.5 -38.5
q36 -17 49 -40t15 -55zM617 104q0 -8 4 -17t13 -16.5t23.5 -12.5t35.5 -5q41 0 58.5 15.5t17.5 35.5q0 28 -28.5 43.5t-79.5 27.5q-20 -15 -32 -32t-12 -39zM760 292q0 13 -15 29t-52 16t-52 -16t-15 -31q0 -20 21 -39t68 -28q20 14 32.5 30t12.5 39z" />
    <glyph glyph-name="seveneighths" unicode="&#x215e;" horiz-adv-x="874" 
d="M95 315q4 42 17 87.5t32.5 88.5t43 80.5t47.5 64.5h-198v65h286v-55q-21 -21 -46 -56.5t-47.5 -80t-39.5 -94.5t-21 -100h-74zM633 693l-391 -693h-87l391 693h87zM841 107q0 -50 -38 -81.5t-110 -31.5q-42 0 -70 10.5t-45 26.5t-24 35.5t-7 37.5q0 28 18 52.5t42 39.5
q-23 17 -36.5 40.5t-13.5 49.5q0 22 9.5 42t27.5 35t43 24t56 9q36 0 62 -10t42.5 -25t24 -33.5t7.5 -36.5q0 -28 -14.5 -50.5t-37.5 -38.5q36 -17 49 -40t15 -55zM617 104q0 -8 4 -17t13 -16.5t23.5 -12.5t35.5 -5q41 0 58.5 15.5t17.5 35.5q0 28 -28.5 43.5t-79.5 27.5
q-20 -15 -32 -32t-12 -39zM760 292q0 13 -15 29t-52 16t-52 -16t-15 -31q0 -20 21 -39t68 -28q20 14 32.5 30t12.5 39z" />
    <glyph glyph-name="onefifth" unicode="&#x2155;" horiz-adv-x="874" 
d="M50 621q38 13 75 33.5t64 46.5h49v-386h-70v294q-22 -14 -50.5 -25t-48.5 -17zM653 693l-391 -693h-87l391 693h87zM833 116q0 -53 -40 -87.5t-124 -34.5q-32 0 -64.5 7t-49.5 16l15 60q15 -6 40.5 -13.5t56.5 -7.5q53 0 73.5 17.5t20.5 40.5q0 17 -8.5 31t-29 23.5
t-54.5 15t-86 5.5q7 50 11.5 101t6.5 98h216v-63h-156q-2 -20 -3 -40t-5 -41q94 -5 137 -37.5t43 -90.5z" />
    <glyph glyph-name="twofifths" unicode="&#x2156;" horiz-adv-x="874" 
d="M296 598q0 -21 -9.5 -41t-25.5 -39.5t-37 -39l-45 -40.5q-17 -14 -33.5 -30.5t-19.5 -29.5h186v-63h-266q-3 33 4.5 58.5t22 46.5t33.5 38.5l40 35.5q34 29 55.5 53.5t21.5 48.5q0 26 -16.5 38t-45.5 12q-17 0 -32 -4.5t-27 -11t-21.5 -13t-14.5 -10.5l-36 49
q17 18 51.5 35.5t79.5 17.5q69 0 102 -29t33 -82zM689 693l-391 -693h-87l391 693h87zM833 116q0 -53 -40 -87.5t-124 -34.5q-32 0 -64.5 7t-49.5 16l15 60q15 -6 40.5 -13.5t56.5 -7.5q53 0 73.5 17.5t20.5 40.5q0 17 -8.5 31t-29 23.5t-54.5 15t-86 5.5q7 50 11.5 101
t6.5 98h216v-63h-156q-2 -20 -3 -40t-5 -41q94 -5 137 -37.5t43 -90.5z" />
    <glyph glyph-name="threefifths" unicode="&#x2157;" horiz-adv-x="874" 
d="M144 369q53 0 73 16.5t20 42.5q0 17 -9 29t-24.5 19.5t-35.5 11t-41 3.5h-19v57h25q14 0 29.5 2.5t28 8.5t20.5 16.5t8 25.5q0 25 -18.5 35.5t-47.5 10.5q-27 0 -50 -9.5t-40 -17.5l-25 55q16 11 49.5 22.5t67.5 11.5q73 0 103.5 -29.5t30.5 -75.5q0 -49 -55 -80
q35 -11 55.5 -36.5t20.5 -60.5q0 -26 -9 -47.5t-29 -38t-51.5 -25.5t-75.5 -9q-31 0 -63 7t-50 16l15 60q22 -8 46.5 -14.5t50.5 -6.5zM674 693l-391 -693h-87l391 693h87zM833 116q0 -53 -40 -87.5t-124 -34.5q-32 0 -64.5 7t-49.5 16l15 60q15 -6 40.5 -13.5t56.5 -7.5
q53 0 73.5 17.5t20.5 40.5q0 17 -8.5 31t-29 23.5t-54.5 15t-86 5.5q7 50 11.5 101t6.5 98h216v-63h-156q-2 -20 -3 -40t-5 -41q94 -5 137 -37.5t43 -90.5z" />
    <glyph glyph-name="fourfifths" unicode="&#x2158;" horiz-adv-x="874" 
d="M285 701v-234h50v-59h-50v-93h-68v93h-193v46q14 25 36 57t48 66t55 66.5t58 57.5h64zM217 618q-31 -32 -63 -72.5t-55 -78.5h118v151zM684 693l-391 -693h-87l391 693h87zM833 116q0 -53 -40 -87.5t-124 -34.5q-32 0 -64.5 7t-49.5 16l15 60q15 -6 40.5 -13.5t56.5 -7.5
q53 0 73.5 17.5t20.5 40.5q0 17 -8.5 31t-29 23.5t-54.5 15t-86 5.5q7 50 11.5 101t6.5 98h216v-63h-156q-2 -20 -3 -40t-5 -41q94 -5 137 -37.5t43 -90.5z" />
    <glyph glyph-name="onesixth" unicode="&#x2159;" horiz-adv-x="874" 
d="M50 621q38 13 75 33.5t64 46.5h49v-386h-70v294q-22 -14 -50.5 -25t-48.5 -17zM674 693l-391 -693h-87l391 693h87zM552 158q0 55 18 98t52 72.5t81.5 45t107.5 16.5l6 -61q-33 -1 -63.5 -7.5t-55.5 -18.5t-42.5 -30t-24.5 -41q20 8 38.5 11t34.5 3q38 0 65 -10
t43.5 -27.5t24 -39.5t7.5 -46q0 -22 -8 -45t-25.5 -41.5t-44 -30.5t-62.5 -12q-75 0 -113.5 43.5t-38.5 120.5zM698 188q-20 0 -39.5 -3.5t-37.5 -9.5q-2 -55 16 -88.5t66 -33.5q19 0 32 6.5t21 17t12 22.5t4 23q0 32 -18 49t-56 17z" />
    <glyph glyph-name="fivesixths" unicode="&#x215a;" horiz-adv-x="874" 
d="M318 429q0 -53 -40 -87.5t-124 -34.5q-32 0 -64.5 7t-49.5 16l15 60q15 -6 40.5 -13.5t56.5 -7.5q53 0 73.5 17.5t20.5 40.5q0 17 -8.5 31t-29 23.5t-54.5 15t-86 5.5q7 50 11.5 101t6.5 98h216v-63h-156q-2 -20 -3 -40t-5 -41q94 -5 137 -37.5t43 -90.5zM685 693
l-391 -693h-87l391 693h87zM552 158q0 55 18 98t52 72.5t81.5 45t107.5 16.5l6 -61q-33 -1 -63.5 -7.5t-55.5 -18.5t-42.5 -30t-24.5 -41q20 8 38.5 11t34.5 3q38 0 65 -10t43.5 -27.5t24 -39.5t7.5 -46q0 -22 -8 -45t-25.5 -41.5t-44 -30.5t-62.5 -12q-75 0 -113.5 43.5
t-38.5 120.5zM698 188q-20 0 -39.5 -3.5t-37.5 -9.5q-2 -55 16 -88.5t66 -33.5q19 0 32 6.5t21 17t12 22.5t4 23q0 32 -18 49t-56 17z" />
    <glyph glyph-name="oneseventh" unicode="&#xf506;" horiz-adv-x="874" 
d="M50 621q38 13 75 33.5t64 46.5h49v-386h-70v294q-22 -14 -50.5 -25t-48.5 -17zM645 693l-391 -693h-87l391 693h87zM610 2q4 42 17 87.5t32.5 88.5t43 80.5t47.5 64.5h-198v65h286v-55q-21 -21 -46 -56.5t-47.5 -80t-39.5 -94.5t-21 -100h-74z" />
    <glyph glyph-name="twosevenths" unicode="&#xf507;" horiz-adv-x="874" 
d="M296 598q0 -21 -9.5 -41t-25.5 -39.5t-37 -39l-45 -40.5q-17 -14 -33.5 -30.5t-19.5 -29.5h186v-63h-266q-3 33 4.5 58.5t22 46.5t33.5 38.5l40 35.5q34 29 55.5 53.5t21.5 48.5q0 26 -16.5 38t-45.5 12q-17 0 -32 -4.5t-27 -11t-21.5 -13t-14.5 -10.5l-36 49
q17 18 51.5 35.5t79.5 17.5q69 0 102 -29t33 -82zM674 693l-391 -693h-87l391 693h87zM610 2q4 42 17 87.5t32.5 88.5t43 80.5t47.5 64.5h-198v65h286v-55q-21 -21 -46 -56.5t-47.5 -80t-39.5 -94.5t-21 -100h-74z" />
    <glyph glyph-name="threesevenths" unicode="&#xf508;" horiz-adv-x="874" 
d="M144 369q53 0 73 16.5t20 42.5q0 17 -9 29t-24.5 19.5t-35.5 11t-41 3.5h-19v57h25q14 0 29.5 2.5t28 8.5t20.5 16.5t8 25.5q0 25 -18.5 35.5t-47.5 10.5q-27 0 -50 -9.5t-40 -17.5l-25 55q16 11 49.5 22.5t67.5 11.5q73 0 103.5 -29.5t30.5 -75.5q0 -49 -55 -80
q35 -11 55.5 -36.5t20.5 -60.5q0 -26 -9 -47.5t-29 -38t-51.5 -25.5t-75.5 -9q-31 0 -63 7t-50 16l15 60q22 -8 46.5 -14.5t50.5 -6.5zM666 693l-391 -693h-87l391 693h87zM610 2q4 42 17 87.5t32.5 88.5t43 80.5t47.5 64.5h-198v65h286v-55q-21 -21 -46 -56.5t-47.5 -80
t-39.5 -94.5t-21 -100h-74z" />
    <glyph glyph-name="foursevenths" unicode="&#xf509;" horiz-adv-x="874" 
d="M285 701v-234h50v-59h-50v-93h-68v93h-193v46q14 25 36 57t48 66t55 66.5t58 57.5h64zM217 618q-31 -32 -63 -72.5t-55 -78.5h118v151zM666 693l-391 -693h-87l391 693h87zM610 2q4 42 17 87.5t32.5 88.5t43 80.5t47.5 64.5h-198v65h286v-55q-21 -21 -46 -56.5t-47.5 -80
t-39.5 -94.5t-21 -100h-74z" />
    <glyph glyph-name="fivesevenths" unicode="&#xf50a;" horiz-adv-x="874" 
d="M318 429q0 -53 -40 -87.5t-124 -34.5q-32 0 -64.5 7t-49.5 16l15 60q15 -6 40.5 -13.5t56.5 -7.5q53 0 73.5 17.5t20.5 40.5q0 17 -8.5 31t-29 23.5t-54.5 15t-86 5.5q7 50 11.5 101t6.5 98h216v-63h-156q-2 -20 -3 -40t-5 -41q94 -5 137 -37.5t43 -90.5zM666 693
l-391 -693h-87l391 693h87zM610 2q4 42 17 87.5t32.5 88.5t43 80.5t47.5 64.5h-198v65h286v-55q-21 -21 -46 -56.5t-47.5 -80t-39.5 -94.5t-21 -100h-74z" />
    <glyph glyph-name="sixsevenths" unicode="&#xf50b;" horiz-adv-x="874" 
d="M37 471q0 55 18 98t52 72.5t81.5 45t107.5 16.5l6 -61q-33 -1 -63.5 -7.5t-55.5 -18.5t-42.5 -30t-24.5 -41q20 8 38.5 11t34.5 3q38 0 65 -10t43.5 -27.5t24 -39.5t7.5 -46q0 -22 -8 -45t-25.5 -41.5t-44 -30.5t-62.5 -12q-75 0 -113.5 43.5t-38.5 120.5zM183 501
q-20 0 -39.5 -3.5t-37.5 -9.5q-2 -55 16 -88.5t66 -33.5q19 0 32 6.5t21 17t12 22.5t4 23q0 32 -18 49t-56 17zM666 693l-391 -693h-87l391 693h87zM610 2q4 42 17 87.5t32.5 88.5t43 80.5t47.5 64.5h-198v65h286v-55q-21 -21 -46 -56.5t-47.5 -80t-39.5 -94.5t-21 -100h-74
z" />
    <glyph glyph-name="oneninth" unicode="&#xf50c;" horiz-adv-x="874" 
d="M50 621q38 13 75 33.5t64 46.5h49v-386h-70v294q-22 -14 -50.5 -25t-48.5 -17zM653 693l-391 -693h-87l391 693h87zM838 232q0 -112 -69 -172t-199 -60l-2 61q73 2 125 26t66 71q-20 -8 -38.5 -11t-34.5 -3q-38 0 -65 10t-43.5 27.5t-24 39.5t-7.5 46q0 22 8 44.5
t25.5 41.5t44 31t62.5 12q75 0 113.5 -43.5t38.5 -120.5zM692 203q20 0 39.5 2.5t37.5 8.5q2 55 -16 89t-66 34q-19 0 -32 -6.5t-21.5 -17t-12 -22.5t-3.5 -23q0 -65 74 -65z" />
    <glyph glyph-name="twoninths" unicode="&#xf50d;" horiz-adv-x="874" 
d="M296 598q0 -21 -9.5 -41t-25.5 -39.5t-37 -39l-45 -40.5q-17 -14 -33.5 -30.5t-19.5 -29.5h186v-63h-266q-3 33 4.5 58.5t22 46.5t33.5 38.5l40 35.5q34 29 55.5 53.5t21.5 48.5q0 26 -16.5 38t-45.5 12q-17 0 -32 -4.5t-27 -11t-21.5 -13t-14.5 -10.5l-36 49
q17 18 51.5 35.5t79.5 17.5q69 0 102 -29t33 -82zM682 693l-391 -693h-87l391 693h87zM838 232q0 -112 -69 -172t-199 -60l-2 61q73 2 125 26t66 71q-20 -8 -38.5 -11t-34.5 -3q-38 0 -65 10t-43.5 27.5t-24 39.5t-7.5 46q0 22 8 44.5t25.5 41.5t44 31t62.5 12
q75 0 113.5 -43.5t38.5 -120.5zM692 203q20 0 39.5 2.5t37.5 8.5q2 55 -16 89t-66 34q-19 0 -32 -6.5t-21.5 -17t-12 -22.5t-3.5 -23q0 -65 74 -65z" />
    <glyph glyph-name="fourninths" unicode="&#xf50e;" horiz-adv-x="874" 
d="M285 701v-234h50v-59h-50v-93h-68v93h-193v46q14 25 36 57t48 66t55 66.5t58 57.5h64zM217 618q-31 -32 -63 -72.5t-55 -78.5h118v151zM682 693l-391 -693h-87l391 693h87zM838 232q0 -112 -69 -172t-199 -60l-2 61q73 2 125 26t66 71q-20 -8 -38.5 -11t-34.5 -3
q-38 0 -65 10t-43.5 27.5t-24 39.5t-7.5 46q0 22 8 44.5t25.5 41.5t44 31t62.5 12q75 0 113.5 -43.5t38.5 -120.5zM692 203q20 0 39.5 2.5t37.5 8.5q2 55 -16 89t-66 34q-19 0 -32 -6.5t-21.5 -17t-12 -22.5t-3.5 -23q0 -65 74 -65z" />
    <glyph glyph-name="fiveninths" unicode="&#xf50f;" horiz-adv-x="874" 
d="M318 429q0 -53 -40 -87.5t-124 -34.5q-32 0 -64.5 7t-49.5 16l15 60q15 -6 40.5 -13.5t56.5 -7.5q53 0 73.5 17.5t20.5 40.5q0 17 -8.5 31t-29 23.5t-54.5 15t-86 5.5q7 50 11.5 101t6.5 98h216v-63h-156q-2 -20 -3 -40t-5 -41q94 -5 137 -37.5t43 -90.5zM674 693
l-391 -693h-87l391 693h87zM838 232q0 -112 -69 -172t-199 -60l-2 61q73 2 125 26t66 71q-20 -8 -38.5 -11t-34.5 -3q-38 0 -65 10t-43.5 27.5t-24 39.5t-7.5 46q0 22 8 44.5t25.5 41.5t44 31t62.5 12q75 0 113.5 -43.5t38.5 -120.5zM692 203q20 0 39.5 2.5t37.5 8.5
q2 55 -16 89t-66 34q-19 0 -32 -6.5t-21.5 -17t-12 -22.5t-3.5 -23q0 -65 74 -65z" />
    <glyph glyph-name="sevenninths" unicode="&#xf510;" horiz-adv-x="874" 
d="M95 315q4 42 17 87.5t32.5 88.5t43 80.5t47.5 64.5h-198v65h286v-55q-21 -21 -46 -56.5t-47.5 -80t-39.5 -94.5t-21 -100h-74zM633 693l-391 -693h-87l391 693h87zM838 232q0 -112 -69 -172t-199 -60l-2 61q73 2 125 26t66 71q-20 -8 -38.5 -11t-34.5 -3q-38 0 -65 10
t-43.5 27.5t-24 39.5t-7.5 46q0 22 8 44.5t25.5 41.5t44 31t62.5 12q75 0 113.5 -43.5t38.5 -120.5zM692 203q20 0 39.5 2.5t37.5 8.5q2 55 -16 89t-66 34q-19 0 -32 -6.5t-21.5 -17t-12 -22.5t-3.5 -23q0 -65 74 -65z" />
    <glyph glyph-name="eightninths" unicode="&#xf511;" horiz-adv-x="874" 
d="M326 420q0 -50 -38 -81.5t-110 -31.5q-42 0 -70 10.5t-45 26.5t-24 35.5t-7 37.5q0 28 18 52.5t42 39.5q-23 17 -36.5 40.5t-13.5 49.5q0 22 9.5 42t27.5 35t43 24t56 9q36 0 62 -10t42.5 -25t24 -33.5t7.5 -36.5q0 -28 -14.5 -50.5t-37.5 -38.5q36 -17 49 -40t15 -55z
M102 417q0 -8 4 -17t13 -16.5t23.5 -12.5t35.5 -5q41 0 58.5 15.5t17.5 35.5q0 28 -28.5 43.5t-79.5 27.5q-20 -15 -32 -32t-12 -39zM245 605q0 13 -15 29t-52 16t-52 -16t-15 -31q0 -20 21 -39t68 -28q20 14 32.5 30t12.5 39zM674 693l-391 -693h-87l391 693h87zM838 232
q0 -112 -69 -172t-199 -60l-2 61q73 2 125 26t66 71q-20 -8 -38.5 -11t-34.5 -3q-38 0 -65 10t-43.5 27.5t-24 39.5t-7.5 46q0 22 8 44.5t25.5 41.5t44 31t62.5 12q75 0 113.5 -43.5t38.5 -120.5zM692 203q20 0 39.5 2.5t37.5 8.5q2 55 -16 89t-66 34q-19 0 -32 -6.5
t-21.5 -17t-12 -22.5t-3.5 -23q0 -65 74 -65z" />
    <glyph glyph-name="partialdiff" unicode="&#x2202;" horiz-adv-x="585" 
d="M225 694q-31 0 -63 -6t-54 -16l-14 79q32 13 72 19t75 6q87 0 143.5 -32t89.5 -85t46 -123t13 -145q0 -70 -13.5 -142t-46 -130t-86 -95t-132.5 -37q-47 0 -86 15t-67.5 44t-44.5 71t-16 96q0 64 17.5 117t50.5 90.5t80.5 58t108.5 20.5q50 0 86 -16.5t53 -30.5
q-4 55 -16.5 99.5t-37.5 76t-64 49t-94 17.5zM303 419q-47 0 -79 -17.5t-52 -46t-29 -64.5t-9 -74q0 -77 36.5 -112.5t91.5 -35.5q52 0 85.5 29.5t53 74t27.5 97t10 97.5q-31 30 -66.5 41t-68.5 11z" />
    <glyph glyph-name="Delta" unicode="&#x2206;" horiz-adv-x="651" 
d="M8 0q34 108 66.5 199t65.5 173.5t67.5 160.5l73.5 160h89l73.5 -160t67.5 -160.5t65.5 -173.5t66.5 -199h-635zM323 582q-22 -45 -72 -166.5t-120 -333.5h383q-70 212 -120 333.5t-71 166.5z" />
    <glyph glyph-name="product" unicode="&#x220f;" horiz-adv-x="697" 
d="M611 693v-802h-97v718h-331v-718h-97v802h525z" />
    <glyph glyph-name="summation" unicode="&#x2211;" horiz-adv-x="515" 
d="M356 304l-121 -166.5t-104 -163.5h367v-83h-479v67q40 78 101.5 167l127.5 181l-63 90l-62 87.5l-56 80t-44 66.5v63h475v-84h-354q15 -25 39 -60.5l52.5 -76.5l60 -84.5z" />
    <glyph glyph-name="uni2126" unicode="&#x2126;" horiz-adv-x="784" 
d="M392 709q64 0 123 -21.5t103.5 -64t71 -105.5t26.5 -146q0 -47 -11 -90t-29 -80t-41 -67.5t-46 -52.5h143v-82h-267v68q31 25 58.5 56t47.5 68t31.5 81.5t11.5 98.5q0 59 -16 106t-45 79.5t-70 49.5t-91 17t-91 -17t-70 -49.5t-45 -79.5t-16 -106q0 -54 11.5 -98.5
t31.5 -81.5t47 -68t59 -56v-68h-267v82h143q-23 22 -46 52.5t-41 67.5t-29 80t-11 90q0 83 26.5 146t71 105.5t103 64t123.5 21.5z" />
    <glyph glyph-name="minus" unicode="&#x2212;" horiz-adv-x="564" 
d="M53 334h458v-79h-458v79z" />
    <glyph glyph-name="uni2215" unicode="&#x2215;" horiz-adv-x="148" 
d="M311 693l-391 -693h-87l391 693h87z" />
    <glyph glyph-name="uni2219" unicode="&#x2219;" horiz-adv-x="246" 
d="M190 294q0 -27 -18 -47t-49 -20t-49 20t-18 47t18 47t49 20t49 -20t18 -47z" />
    <glyph glyph-name="radical" unicode="&#x221a;" horiz-adv-x="564" 
d="M12 346l162 52l34 -73.5l31 -69.5l29.5 -72l30.5 -81l195 681h82l-234 -798h-84q-32 85 -66 165l-70 158l-89 -28z" />
    <glyph glyph-name="infinity" unicode="&#x221e;" horiz-adv-x="588" 
d="M173 217q27 0 49 17.5t42 59.5q-20 42 -42 59.5t-49 17.5q-28 0 -49.5 -19.5t-21.5 -57.5t21.5 -57.5t49.5 -19.5zM294 229q-9 -14 -21 -27.5t-28 -24.5t-35 -18t-41 -7q-19 0 -43 6.5t-45.5 23t-36 44t-14.5 68.5t14.5 68.5t36 44t45.5 23t43 6.5q22 0 41 -7t35 -18
t28 -25t21 -27q9 13 21 27t28 25t35 18t41 7q19 0 43 -6.5t45.5 -23t36 -44t14.5 -68.5t-14.5 -68.5t-36 -44t-45.5 -23t-43 -6.5q-22 0 -41 7t-35 18t-28 24.5t-21 27.5zM415 217q28 0 49.5 19.5t21.5 57.5t-21.5 57.5t-49.5 19.5q-27 0 -49 -17.5t-42 -59.5
q20 -42 42 -59.5t49 -17.5z" />
    <glyph glyph-name="integral" unicode="&#x222b;" horiz-adv-x="369" 
d="M138 567q0 100 49 154.5t154 54.5h5.5t14.5 -1v-80h-12q-63 0 -90.5 -34.5t-27.5 -91.5v-545q0 -100 -49 -154.5t-154 -54.5h-5.5t-14.5 1v80h12q63 0 90.5 34.5t27.5 91.5v545z" />
    <glyph glyph-name="approxequal" unicode="&#x2248;" horiz-adv-x="564" 
d="M520 465q-4 -20 -12.5 -44t-24.5 -45.5t-40.5 -36t-59.5 -14.5q-30 0 -55.5 12t-48.5 26l-52 31.5t-53 15.5q-16 0 -27 -7.5t-19 -19t-13 -25t-9 -26.5l-64 18q4 19 13 43.5t24.5 46t40 36t59.5 14.5q30 0 55.5 -12t48.5 -26l52 -31.5t53 -15.5q16 0 27 7.5t19 19t13 25
t9 26.5zM520 251q-4 -20 -12.5 -44t-24.5 -45.5t-40.5 -36t-59.5 -14.5q-30 0 -55.5 12t-48.5 26l-52 31.5t-53 15.5q-16 0 -27 -7.5t-19 -19t-13 -25t-9 -26.5l-64 18q4 19 13 43.5t24.5 46t40 36t59.5 14.5q30 0 55.5 -12t48.5 -26l52 -31.5t53 -15.5q16 0 27 7.5t19 19
t13 25t9 26.5z" />
    <glyph glyph-name="notequal" unicode="&#x2260;" horiz-adv-x="564" 
d="M53 226h153l68 134h-221v79h261l66 131l66 -36l-48 -95h113v-79h-153l-68 -134h221v-79h-261l-66 -131l-66 36l48 95h-113v79z" />
    <glyph glyph-name="lessequal" unicode="&#x2264;" horiz-adv-x="564" 
d="M156 367l355 -146l-26 -77l-432 183v80l432 183l26 -77zM53 80h458v-79h-458v79z" />
    <glyph glyph-name="greaterequal" unicode="&#x2265;" horiz-adv-x="564" 
d="M53 513l26 77l432 -183v-80l-432 -183l-26 77l355 146zM53 80h458v-79h-458v79z" />
    <glyph glyph-name="lozenge" unicode="&#x25ca;" horiz-adv-x="552" 
d="M30 347l67 103.5l62 92.5l59 85.5l58 82.5l58 -82.5l59 -85.5l62 -92.5l67 -103.5l-67 -103.5l-62 -92.5l-59 -85.5l-58 -82.5l-58 82.5l-59 85.5l-62 92.5zM426 347l-40 64l-37 57.5l-36 53.5l-37 52l-37 -52l-36 -53.5l-37 -57.5l-40 -64l77 -121.5t73 -105.5
q38 52 73 105.5z" />
    <glyph glyph-name="fi" unicode="&#xf001;" horiz-adv-x="643" 
d="M283 776q35 0 60 -4.5t36 -8.5l-13 -80q-11 4 -30 8.5t-46 4.5q-65 0 -91 -35.5t-26 -95.5v-45h200v-78h-200v-442h-93v567q0 100 49 154.5t154 54.5zM563 0h-93v520h93v-520zM516 614q-25 0 -42.5 16.5t-17.5 44.5t17.5 44.5t42.5 16.5t42.5 -16.5t17.5 -44.5
t-17.5 -44.5t-42.5 -16.5z" />
    <glyph glyph-name="fl" unicode="&#xf002;" horiz-adv-x="663" 
d="M283 776q35 0 60 -4.5t36 -8.5l-13 -80q-11 4 -30 8.5t-46 4.5q-65 0 -91 -35.5t-26 -95.5v-45h200v-78h-200v-442h-93v567q0 100 49 154.5t154 54.5zM626 -10q-86 2 -122 37t-36 109v624l93 16v-625q0 -23 4 -38t13 -24t24 -13.5t37 -7.5z" />
    <glyph glyph-name="zero.alt" unicode="&#xf800;" horiz-adv-x="564" 
d="M50 347q0 174 61.5 268t170.5 94t170.5 -94t61.5 -268t-61.5 -268t-170.5 -94t-170.5 94t-61.5 268zM416 347q0 57 -6.5 108t-22 89t-41.5 60.5t-64 22.5t-64 -22.5t-41.5 -60.5t-22 -89t-6.5 -108t6.5 -108t22 -89t41.5 -60.5t64 -22.5t64 22.5t41.5 60.5t22 89t6.5 108
z" />
    <glyph glyph-name="one.alt" unicode="&#xf801;" horiz-adv-x="373" 
d="M15 550q57 22 111 56.5t99 86.5h66v-693h-93v564q-12 -11 -29.5 -23t-38 -23t-43 -21t-43.5 -17z" />
    <glyph glyph-name="two.alt" unicode="&#xf802;" horiz-adv-x="495" 
d="M436 516q0 -36 -14.5 -69.5t-38.5 -66t-54 -64l-60 -61.5l-39.5 -40t-42.5 -48t-33.5 -48t-13.5 -40h319v-79h-420q-1 6 -1 12v11q0 47 15.5 87.5t40.5 76.5t56 68l61 62l47.5 47.5t40 47t28 48.5t10.5 53q0 30 -9.5 51t-25.5 35t-37.5 20.5t-45.5 6.5q-29 0 -53 -8
t-43 -18.5t-32 -22l-20 -17.5l-46 66q9 10 27 24.5t43 27.5t56 22t67 9q109 0 163.5 -50.5t54.5 -142.5z" />
    <glyph glyph-name="three.alt" unicode="&#xf803;" horiz-adv-x="504" 
d="M196 68q89 0 127.5 35t38.5 94q0 38 -16 64t-42 41.5t-60.5 22t-70.5 6.5h-24v76h33q25 0 51.5 5t48.5 18t36 35.5t14 56.5q0 28 -10 48t-26.5 33t-38 18.5t-45.5 5.5q-48 0 -81.5 -14t-56.5 -29l-36 71q12 8 30.5 17.5t41.5 17.5t49.5 13.5t55.5 5.5q55 0 95 -13.5
t66 -38t39 -58t13 -72.5q0 -54 -31 -92.5t-75 -58.5q27 -8 52 -23t43.5 -38t30 -53t11.5 -67q0 -45 -15.5 -83.5t-48 -66.5t-81.5 -44t-116 -16q-26 0 -53.5 4t-51.5 10t-42 12t-26 10l18 81q17 -8 56.5 -21t96.5 -13z" />
    <glyph glyph-name="four.alt" unicode="&#xf804;" horiz-adv-x="533" 
d="M25 240q19 44 52 102.5t74.5 120.5t89 122t95.5 108h89v-440h82v-76h-82v-177h-90v177h-310v63zM335 583q-30 -32 -60.5 -71.5t-59.5 -82.5t-54.5 -88t-45.5 -88h220v330z" />
    <glyph glyph-name="five.alt" unicode="&#xf805;" horiz-adv-x="496" 
d="M160 426q151 -6 221.5 -66t70.5 -163q0 -46 -15.5 -85t-47 -67t-79.5 -44t-114 -16q-26 0 -53 4t-50 10t-41 12t-26 10l18 81q17 -8 55.5 -21t94.5 -13q45 0 75.5 10t49.5 27t27.5 39.5t8.5 47.5q0 38 -13 67.5t-46 49.5t-88 30.5t-139 10.5q6 49 9.5 92t6.5 84t5 81.5
t4 85.5h334v-79h-253q-1 -15 -3 -40.5l-4 -53l-4 -53.5t-4 -41z" />
    <glyph glyph-name="six.alt" unicode="&#xf806;" horiz-adv-x="546" 
d="M51 278q0 101 28 178.5t79.5 130.5t125 80.5t165.5 28.5l7 -78q-59 -1 -107.5 -13t-86.5 -38t-64 -67.5t-39 -102.5q26 12 58.5 20t67.5 8q59 0 100 -18t67 -47.5t37.5 -68t11.5 -80.5q0 -38 -13 -78t-39.5 -73t-67.5 -54t-97 -21q-114 0 -173.5 78t-59.5 215zM275 349
q-35 0 -65 -6.5t-60 -19.5q-1 -11 -1.5 -22.5t-0.5 -22.5q0 -44 6 -83t21.5 -68.5t41.5 -47t66 -17.5q33 0 56 14t38 36t21.5 47.5t6.5 49.5q0 68 -32.5 104t-97.5 36z" />
    <glyph glyph-name="seven.alt" unicode="&#xf807;" horiz-adv-x="471" 
d="M118 0q6 80 28.5 168.5t55.5 172t72.5 155t77.5 116.5h-337v81h441v-77q-33 -38 -73 -104.5t-75.5 -149t-61 -176t-31.5 -186.5h-97z" />
    <glyph glyph-name="eight.alt" unicode="&#xf808;" horiz-adv-x="550" 
d="M503 180q0 -42 -14.5 -77.5t-43 -62t-71.5 -41t-99 -14.5q-65 0 -108.5 18.5t-69.5 46.5t-37 61.5t-11 63.5q0 29 9.5 55.5t25 49.5t36 41.5t43.5 32.5q-98 56 -98 165q0 38 15 72.5t42.5 60.5t66.5 41.5t87 15.5q56 0 96 -17t65.5 -43.5t37 -58.5t11.5 -62
q0 -29 -8.5 -54.5t-23 -47.5t-33 -39t-38.5 -30q118 -56 120 -177zM143 174q0 -18 6.5 -37.5t22.5 -36t41 -27.5t63 -11q34 0 59.5 10t41.5 25.5t24 35.5t8 41q0 32 -12 56t-34.5 42t-54 30.5t-71.5 21.5q-45 -25 -69.5 -62t-24.5 -88zM393 529q0 15 -6.5 33t-20.5 33.5
t-36 26t-54 10.5t-54.5 -10t-36.5 -25.5t-20.5 -34t-6.5 -36.5q0 -22 8 -44t25 -41t44.5 -34t65.5 -24q42 25 67 58.5t25 87.5z" />
    <glyph glyph-name="nine.alt" unicode="&#xf809;" horiz-adv-x="546" 
d="M497 416q0 -206 -102.5 -311.5t-304.5 -106.5l-3 78q63 0 113.5 12t88.5 38.5t63.5 68.5t37.5 103q-26 -12 -59 -19.5t-68 -7.5q-59 0 -100 17.5t-67 47t-37.5 68t-11.5 80.5q0 37 13 77t39.5 73t67.5 54t97 21q57 0 100.5 -20t73 -58t44.5 -92.5t15 -122.5zM273 347
q35 0 66 6.5t60 19.5q1 11 1 21.5v21.5q0 43 -6 82.5t-21.5 69t-41.5 47t-66 17.5q-33 0 -56 -14t-38 -35.5t-21.5 -47t-6.5 -49.5q0 -68 32.5 -103.5t97.5 -35.5z" />
    <glyph glyph-name="zero.sups" unicode="&#xf80a;" horiz-adv-x="359" 
d="M29 628q0 97 40 149t110 52t110 -52t40 -149t-40 -149t-110 -52t-110 52t-40 149zM255 628q0 28 -3.5 53.5t-12.5 44.5t-23.5 30t-36.5 11t-36.5 -11t-23.5 -30t-13 -44.5t-4 -53.5q0 -29 4 -54t13 -44t23.5 -30t36.5 -11t36.5 11t23.5 30t12.5 44t3.5 54z" />
    <glyph glyph-name="one.sups" unicode="&#xf80b;" horiz-adv-x="359" 
d="M50 741q38 13 75 33.5t64 46.5h49v-386h-70v294q-22 -14 -50.5 -25t-48.5 -17z" />
    <glyph glyph-name="two.sups" unicode="&#xf80c;" horiz-adv-x="359" 
d="M296 718q0 -21 -9.5 -41t-25.5 -39.5t-37 -39l-45 -40.5q-17 -14 -33.5 -30.5t-19.5 -29.5h186v-63h-266q-3 33 4.5 58.5t22 46.5t33.5 38.5l40 35.5q34 29 55.5 53.5t21.5 48.5q0 26 -16.5 38t-45.5 12q-17 0 -32 -4.5t-27 -11t-21.5 -13t-14.5 -10.5l-36 49
q17 18 51.5 35.5t79.5 17.5q69 0 102 -29t33 -82z" />
    <glyph glyph-name="three.sups" unicode="&#xf80d;" horiz-adv-x="359" 
d="M144 489q53 0 73 16.5t20 42.5q0 17 -9 29t-24.5 19.5t-35.5 11t-41 3.5h-19v57h25q14 0 29.5 2.5t28 8.5t20.5 16.5t8 25.5q0 25 -18.5 35.5t-47.5 10.5q-27 0 -50 -9.5t-40 -17.5l-25 55q16 11 49.5 22.5t67.5 11.5q73 0 103.5 -29.5t30.5 -75.5q0 -49 -55 -80
q35 -11 55.5 -36.5t20.5 -60.5q0 -26 -9 -47.5t-29 -38t-51.5 -25.5t-75.5 -9q-31 0 -63 7t-50 16l15 60q22 -8 46.5 -14.5t50.5 -6.5z" />
    <glyph glyph-name="four.sups" unicode="&#xf80e;" horiz-adv-x="359" 
d="M285 821v-234h50v-59h-50v-93h-68v93h-193v46q14 25 36 57t48 66t55 66.5t58 57.5h64zM217 738q-31 -32 -63 -72.5t-55 -78.5h118v151z" />
    <glyph glyph-name="five.sups" unicode="&#xf80f;" horiz-adv-x="359" 
d="M318 549q0 -53 -40 -87.5t-124 -34.5q-32 0 -64.5 7t-49.5 16l15 60q15 -6 40.5 -13.5t56.5 -7.5q53 0 73.5 17.5t20.5 40.5q0 17 -8.5 31t-29 23.5t-54.5 15t-86 5.5q7 50 11.5 101t6.5 98h216v-63h-156q-2 -20 -3 -40t-5 -41q94 -5 137 -37.5t43 -90.5z" />
    <glyph glyph-name="six.sups" unicode="&#xf810;" horiz-adv-x="359" 
d="M37 591q0 55 18 98t52 72.5t81.5 45t107.5 16.5l6 -61q-33 -1 -63.5 -7.5t-55.5 -18.5t-42.5 -30t-24.5 -41q20 8 38.5 11t34.5 3q38 0 65 -10t43.5 -27.5t24 -39.5t7.5 -46q0 -22 -8 -45t-25.5 -41.5t-44 -30.5t-62.5 -12q-75 0 -113.5 43.5t-38.5 120.5zM183 621
q-20 0 -39.5 -3.5t-37.5 -9.5q-2 -55 16 -88.5t66 -33.5q19 0 32 6.5t21 17t12 22.5t4 23q0 32 -18 49t-56 17z" />
    <glyph glyph-name="seven.sups" unicode="&#xf811;" horiz-adv-x="359" 
d="M95 435q4 42 17 87.5t32.5 88.5t43 80.5t47.5 64.5h-198v65h286v-55q-21 -21 -46 -56.5t-47.5 -80t-39.5 -94.5t-21 -100h-74z" />
    <glyph glyph-name="eight.sups" unicode="&#xf812;" horiz-adv-x="359" 
d="M326 540q0 -50 -38 -81.5t-110 -31.5q-42 0 -70 10.5t-45 26.5t-24 35.5t-7 37.5q0 28 18 52.5t42 39.5q-23 17 -36.5 40.5t-13.5 49.5q0 22 9.5 42t27.5 35t43 24t56 9q36 0 62 -10t42.5 -25t24 -33.5t7.5 -36.5q0 -28 -14.5 -50.5t-37.5 -38.5q36 -17 49 -40t15 -55z
M102 537q0 -8 4 -17t13 -16.5t23.5 -12.5t35.5 -5q41 0 58.5 15.5t17.5 35.5q0 28 -28.5 43.5t-79.5 27.5q-20 -15 -32 -32t-12 -39zM245 725q0 13 -15 29t-52 16t-52 -16t-15 -31q0 -20 21 -39t68 -28q20 14 32.5 30t12.5 39z" />
    <glyph glyph-name="nine.sups" unicode="&#xf813;" horiz-adv-x="359" 
d="M323 665q0 -112 -69 -172t-199 -60l-2 61q73 2 125 26t66 71q-20 -8 -38.5 -11t-34.5 -3q-38 0 -65 10t-43.5 27.5t-24 39.5t-7.5 46q0 22 8 44.5t25.5 41.5t44 31t62.5 12q75 0 113.5 -43.5t38.5 -120.5zM177 636q20 0 39.5 2.5t37.5 8.5q2 55 -16 89t-66 34
q-19 0 -32 -6.5t-21.5 -17t-12 -22.5t-3.5 -23q0 -65 74 -65z" />
    <glyph glyph-name="zero.sinf" unicode="&#xf814;" horiz-adv-x="359" 
d="M29 74q0 97 40 149t110 52t110 -52t40 -149t-40 -149t-110 -52t-110 52t-40 149zM255 74q0 28 -3.5 53.5t-12.5 44.5t-23.5 30t-36.5 11t-36.5 -11t-23.5 -30t-13 -44.5t-4 -53.5q0 -29 4 -54t13 -44t23.5 -30t36.5 -11t36.5 11t23.5 30t12.5 44t3.5 54z" />
    <glyph glyph-name="one.sinf" unicode="&#xf815;" horiz-adv-x="359" 
d="M50 187q38 13 75 33.5t64 46.5h49v-386h-70v294q-22 -14 -50.5 -25t-48.5 -17z" />
    <glyph glyph-name="two.sinf" unicode="&#xf816;" horiz-adv-x="359" 
d="M296 164q0 -21 -9.5 -41t-25.5 -39.5t-37 -39l-45 -40.5q-17 -14 -33.5 -30.5t-19.5 -29.5h186v-63h-266q-3 33 4.5 58.5t22 46.5t33.5 38.5l40 35.5q34 29 55.5 53.5t21.5 48.5q0 26 -16.5 38t-45.5 12q-17 0 -32 -4.5t-27 -11t-21.5 -13t-14.5 -10.5l-36 49
q17 18 51.5 35.5t79.5 17.5q69 0 102 -29t33 -82z" />
    <glyph glyph-name="three.sinf" unicode="&#xf817;" horiz-adv-x="359" 
d="M144 -65q53 0 73 16.5t20 42.5q0 17 -9 29t-24.5 19.5t-35.5 11t-41 3.5h-19v57h25q14 0 29.5 2.5t28 8.5t20.5 16.5t8 25.5q0 25 -18.5 35.5t-47.5 10.5q-27 0 -50 -9.5t-40 -17.5l-25 55q16 11 49.5 22.5t67.5 11.5q73 0 103.5 -29.5t30.5 -75.5q0 -49 -55 -80
q35 -11 55.5 -36.5t20.5 -60.5q0 -26 -9 -47.5t-29 -38t-51.5 -25.5t-75.5 -9q-31 0 -63 7t-50 16l15 60q22 -8 46.5 -14.5t50.5 -6.5z" />
    <glyph glyph-name="four.sinf" unicode="&#xf818;" horiz-adv-x="359" 
d="M285 267v-234h50v-59h-50v-93h-68v93h-193v46q14 25 36 57t48 66t55 66.5t58 57.5h64zM217 184q-31 -32 -63 -72.5t-55 -78.5h118v151z" />
    <glyph glyph-name="five.sinf" unicode="&#xf819;" horiz-adv-x="359" 
d="M318 -5q0 -53 -40 -87.5t-124 -34.5q-32 0 -64.5 7t-49.5 16l15 60q15 -6 40.5 -13.5t56.5 -7.5q53 0 73.5 17.5t20.5 40.5q0 17 -8.5 31t-29 23.5t-54.5 15t-86 5.5q7 50 11.5 101t6.5 98h216v-63h-156q-2 -20 -3 -40t-5 -41q94 -5 137 -37.5t43 -90.5z" />
    <glyph glyph-name="six.sinf" unicode="&#xf81a;" horiz-adv-x="359" 
d="M37 37q0 55 18 98t52 72.5t81.5 45t107.5 16.5l6 -61q-33 -1 -63.5 -7.5t-55.5 -18.5t-42.5 -30t-24.5 -41q20 8 38.5 11t34.5 3q38 0 65 -10t43.5 -27.5t24 -39.5t7.5 -46q0 -22 -8 -45t-25.5 -41.5t-44 -30.5t-62.5 -12q-75 0 -113.5 43.5t-38.5 120.5zM183 67
q-20 0 -39.5 -3.5t-37.5 -9.5q-2 -55 16 -88.5t66 -33.5q19 0 32 6.5t21 17t12 22.5t4 23q0 32 -18 49t-56 17z" />
    <glyph glyph-name="seven.sinf" unicode="&#xf81b;" horiz-adv-x="359" 
d="M95 -119q4 42 17 87.5t32.5 88.5t43 80.5t47.5 64.5h-198v65h286v-55q-21 -21 -46 -56.5t-47.5 -80t-39.5 -94.5t-21 -100h-74z" />
    <glyph glyph-name="eight.sinf" unicode="&#xf81c;" horiz-adv-x="359" 
d="M326 -14q0 -50 -38 -81.5t-110 -31.5q-42 0 -70 10.5t-45 26.5t-24 35.5t-7 37.5q0 28 18 52.5t42 39.5q-23 17 -36.5 40.5t-13.5 49.5q0 22 9.5 42t27.5 35t43 24t56 9q36 0 62 -10t42.5 -25t24 -33.5t7.5 -36.5q0 -28 -14.5 -50.5t-37.5 -38.5q36 -17 49 -40t15 -55z
M102 -17q0 -8 4 -17t13 -16.5t23.5 -12.5t35.5 -5q41 0 58.5 15.5t17.5 35.5q0 28 -28.5 43.5t-79.5 27.5q-20 -15 -32 -32t-12 -39zM245 171q0 13 -15 29t-52 16t-52 -16t-15 -31q0 -20 21 -39t68 -28q20 14 32.5 30t12.5 39z" />
    <glyph glyph-name="nine.sinf" unicode="&#xf81d;" horiz-adv-x="359" 
d="M323 111q0 -112 -69 -172t-199 -60l-2 61q73 2 125 26t66 71q-20 -8 -38.5 -11t-34.5 -3q-38 0 -65 10t-43.5 27.5t-24 39.5t-7.5 46q0 22 8 44.5t25.5 41.5t44 31t62.5 12q75 0 113.5 -43.5t38.5 -120.5zM177 82q20 0 39.5 2.5t37.5 8.5q2 55 -16 89t-66 34
q-19 0 -32 -6.5t-21.5 -17t-12 -22.5t-3.5 -23q0 -65 74 -65z" />
    <glyph glyph-name="caron.alt" horiz-adv-x="376" 
d="M239 776l-27 -223h-62v223h89z" />
    <glyph glyph-name="commaaccent" horiz-adv-x="249" 
d="M85 -50h89q1 -5 1 -11.5v-9.5q0 -32 -9.5 -54t-25.5 -36t-37.5 -20.5t-45.5 -6.5q-13 0 -23.5 1t-13.5 3v56q15 0 27.5 2t20.5 8.5t12.5 19.5t4.5 35v13z" />
    <glyph glyph-name="revcommaaccent" horiz-adv-x="249" 
d="M154 609h-89q-1 5 -1 11.5v9.5q0 36 10 62.5t26.5 44.5t36.5 28.5t40 15.5l33 -45q-12 -9 -22.5 -18t-18 -21.5t-11.5 -30t-4 -44.5v-13z" />
    <glyph glyph-name="caron.alt.short" horiz-adv-x="376" 
d="M232 776l-27 -194h-62v194h89z" />
    <glyph glyph-name="Parenleft" horiz-adv-x="324" 
d="M171 346q0 -128 37 -237t109 -202l-66 -45q-78 95 -125.5 218.5t-47.5 265.5t47.5 265.5t125.5 218.5l66 -45q-72 -93 -109 -202t-37 -237z" />
    <glyph glyph-name="Parenright" horiz-adv-x="324" 
d="M153 346q0 128 -37 237t-109 202l66 45q78 -95 125.5 -218.5t47.5 -265.5t-47.5 -265.5t-125.5 -218.5l-66 45q72 93 109 202t37 237z" />
    <glyph glyph-name="Hyphen" horiz-adv-x="299" 
d="M26 390h247v-87h-247v87z" />
    <glyph glyph-name="Slash" horiz-adv-x="384" 
d="M71 -138h-95l339 968h93z" />
    <glyph glyph-name="At" horiz-adv-x="950" 
d="M690 111q-32 0 -53 9t-35 24q-22 -12 -53 -20.5t-62 -8.5q-48 0 -87.5 15t-68.5 44.5t-45 72.5t-16 100q0 48 15 90.5t44.5 74t72 49.5t96.5 18q51 0 93.5 -8t65.5 -16v-306q0 -32 11 -45t29 -13q26 0 45.5 18t32 47t18.5 65.5t6 74.5q0 63 -22 118.5t-63 97.5t-99.5 66
t-131.5 24t-134 -24.5t-105 -70t-68.5 -111.5t-24.5 -150q0 -88 26 -154.5t72.5 -111t110 -67t139.5 -22.5q59 0 97.5 7t49.5 11l10 -74q-17 -6 -61.5 -13t-95.5 -7q-89 0 -168 25.5t-138 78t-93.5 134t-34.5 193.5q0 108 34 189t91.5 134.5t133 80.5t159.5 27
q82 0 155 -26.5t128 -77t87 -122t32 -161.5q0 -68 -15.5 -120t-41.5 -87.5t-62 -53.5t-76 -18zM490 192q21 0 42.5 4.5t38.5 13.5q-3 13 -4 26t-1 25v235q-6 2 -23 4t-38 2q-71 0 -106 -44t-35 -111q0 -71 34 -113t92 -42z" />
    <glyph glyph-name="Bracketleft" horiz-adv-x="329" 
d="M96 830h225v-73h-138v-822h138v-73h-225v968z" />
    <glyph glyph-name="Backslash" horiz-adv-x="384" 
d="M-24 830h93l339 -968h-95z" />
    <glyph glyph-name="Bracketright" horiz-adv-x="329" 
d="M233 -138h-225v73h138v822h-138v73h225v-968z" />
    <glyph glyph-name="Braceleft" horiz-adv-x="333" 
d="M40 382q24 0 41 8.5t28.5 22t17 31t5.5 35.5v180q0 41 9 73t31 53.5t58.5 33t90.5 11.5h4v-73q-57 0 -81.5 -20.5t-24.5 -78.5v-154q0 -66 -17.5 -102t-49.5 -56q32 -20 49.5 -56t17.5 -102v-154q0 -58 24.5 -78.5t81.5 -20.5v-73h-4q-54 0 -90.5 11t-58.5 33t-31 54
t-9 73v180q0 18 -5.5 35.5t-17 31t-28.5 22t-41 8.5v72z" />
    <glyph glyph-name="Braceright" horiz-adv-x="333" 
d="M293 310q-24 0 -41 -8.5t-28.5 -22t-17 -31t-5.5 -35.5v-180q0 -41 -9 -73t-31 -54t-58.5 -33t-90.5 -11h-4v73q57 0 81.5 20.5t24.5 78.5v154q0 66 17.5 102t49.5 56q-32 20 -49.5 56t-17.5 102v154q0 58 -24.5 78.5t-81.5 20.5v73h4q54 0 90.5 -11.5t58.5 -33t31 -53.5
t9 -73v-180q0 -18 5.5 -35.5t17 -31t28.5 -22t41 -8.5v-72z" />
    <glyph glyph-name="Guilsinglleft" horiz-adv-x="291" 
d="M30 346l156 221l65 -35l-111 -186l111 -186l-65 -35z" />
    <glyph glyph-name="Bullet" horiz-adv-x="360" 
d="M308 353q0 -26 -9 -49t-25.5 -40t-40 -27.5t-53.5 -10.5t-53.5 10.5t-40 27.5t-25.5 40t-9 49q0 25 9 48.5t25.5 40.5t40 27.5t53.5 10.5t53.5 -10.5t40 -27.5t25.5 -40.5t9 -48.5z" />
    <glyph glyph-name="Endash" horiz-adv-x="496" 
d="M-2 386h500v-79h-500v79z" />
    <glyph glyph-name="Emdash" horiz-adv-x="996" 
d="M-2 386h1000v-79h-1000v79z" />
    <glyph glyph-name="Guilsinglright" horiz-adv-x="291" 
d="M105 125l-65 35l111 186l-111 186l65 35l156 -221z" />
    <glyph glyph-name="Exclamdown" horiz-adv-x="276" 
d="M88 187q0 84 6 152.5t15 136.5h58q9 -68 15 -136.5t6 -152.5v-187h-100v187zM71 638q0 27 18 47t49 20t49 -20t18 -47t-18 -47t-49 -20t-49 20t-18 47z" />
    <glyph glyph-name="Guillemotleft" horiz-adv-x="499" 
d="M30 346l156 221l65 -35l-111 -186l111 -186l-65 -35zM238 346l156 221l65 -35l-111 -186l111 -186l-65 -35z" />
    <glyph glyph-name="Guillemotright" horiz-adv-x="499" 
d="M105 125l-65 35l111 186l-111 186l65 35l156 -221zM313 125l-65 35l111 186l-111 186l65 35l156 -221z" />
    <glyph glyph-name="Questiondown" horiz-adv-x="404" 
d="M126 162q0 -38 27.5 -62.5t76.5 -24.5q66 0 129 34l26 -72q-34 -18 -76.5 -29t-90.5 -11q-54 0 -90 14t-58.5 36t-32 49.5t-9.5 54.5q0 33 12.5 59t31.5 49.5t40.5 44.5t40.5 44.5t31.5 49.5t12.5 59v9.5t-1 9.5h78q4 -20 4 -39q0 -32 -11.5 -58t-28 -48.5t-36.5 -42.5
t-36.5 -40t-28 -41t-11.5 -45zM163 638q0 27 18 47t49 20t49 -20t18 -47t-18 -47t-49 -20t-49 20t-18 47z" />
    <glyph glyph-name="uni0180" unicode="&#x180;" horiz-adv-x="589" 
d="M173 493q17 11 51.5 23t79.5 12q56 0 99.5 -19.5t73.5 -55t45.5 -85t15.5 -109.5q0 -63 -18.5 -113t-52.5 -85.5t-82 -54t-108 -18.5q-65 0 -115 9t-82 18v599h-74v69h74v77l93 16v-93h177v-69h-177v-121zM173 81q14 -4 39.5 -7.5t63.5 -3.5q75 0 120 49t45 140
q0 40 -8 74.5t-26 59.5t-46.5 39t-68.5 14q-38 0 -70 -13t-49 -27v-325z" />
    <glyph glyph-name="uni0181" unicode="&#x181;" horiz-adv-x="744" 
d="M374 -6q-21 0 -45.5 1t-49 3t-48.5 5t-44 8v598q-91 -5 -91 -77q0 -8 0.5 -16.5t1.5 -14.5l-77 -9q-2 7 -4 21t-2 28q0 59 29 91t78.5 47t114.5 18t137 3q60 0 112.5 -9t91.5 -30.5t61.5 -56.5t22.5 -86q0 -57 -28.5 -93.5t-76.5 -53.5q64 -18 100 -57t36 -111
q0 -104 -76.5 -156.5t-242.5 -52.5zM283 324v-246q11 -1 26 -2q13 -1 30.5 -1h40.5q43 0 81.5 5.5t67.5 19.5t46.5 39t17.5 63q0 34 -13 57.5t-37.5 38t-58.5 20.5t-76 6h-125zM283 400h98q41 0 74.5 5.5t57.5 18t37 34t13 53.5q0 30 -14.5 50.5t-39.5 33t-58.5 18.5
t-70.5 6q-23 0 -40.5 -0.5t-30.5 -0.5h-26v-218z" />
    <glyph glyph-name="uni0182" unicode="&#x182;" horiz-adv-x="619" 
d="M183 610v-176h86q73 0 130.5 -12t97.5 -38.5t61 -68t21 -101.5q0 -110 -80 -165.5t-226 -55.5q-21 0 -45.5 1t-49 3t-48.5 5t-44 8v683h428v-83h-331zM281 78q39 0 74.5 6t62.5 21.5t43 41.5t16 66q0 42 -14.5 69t-41.5 43t-66.5 22.5t-89.5 6.5h-82v-273q11 -1 26 -2
q13 -1 31 -1h41z" />
    <glyph glyph-name="uni0183" unicode="&#x183;" horiz-adv-x="589" 
d="M173 693v-200q17 11 51.5 23t79.5 12q56 0 99.5 -19.5t73.5 -55t45.5 -85t15.5 -109.5q0 -63 -18.5 -113t-52.5 -85.5t-82 -54t-108 -18.5q-65 0 -115 9t-82 18v756h401v-78h-308zM173 81q14 -4 39.5 -7.5t63.5 -3.5q75 0 120 49t45 140q0 40 -8 74.5t-26 59.5t-46.5 39
t-68.5 14q-38 0 -70 -13t-49 -27v-325z" />
    <glyph glyph-name="uni0184" unicode="&#x184;" horiz-adv-x="589" 
d="M173 497q17 11 51.5 23t79.5 12q56 0 99.5 -20t73.5 -56t45.5 -86t15.5 -110q0 -63 -18.5 -113.5t-52.5 -85.5t-82 -54t-108 -19q-65 0 -115 9t-82 18v617l-70 76q36 21 77.5 39t85.5 29v-279zM173 81q14 -4 39.5 -7.5t63.5 -3.5q75 0 120 49.5t45 140.5q0 40 -8 75
t-26 60.5t-46.5 40t-68.5 14.5q-38 0 -70 -13t-49 -27v-329z" />
    <glyph glyph-name="uni0185" unicode="&#x185;" horiz-adv-x="620" 
d="M481 217q0 42 -16 70t-44.5 44t-68 22.5t-87.5 6.5h-38.5t-39.5 -2v-277q11 -1 25 -2q12 -1 29.5 -1h40.5q39 0 75 6t63.5 22t44 42.5t16.5 68.5zM187 441q20 2 40.5 2.5t40.5 0.5q315 0 315 -227q0 -112 -81.5 -168t-227.5 -56q-42 0 -92.5 3.5t-91.5 13.5v545l-70 76
q36 21 78.5 39t88.5 30v-259z" />
    <glyph glyph-name="uni0186" unicode="&#x186;" horiz-adv-x="620" 
d="M562 347q0 -85 -23.5 -152.5t-66.5 -114t-102.5 -71t-132.5 -24.5q-42 0 -78 5t-63.5 12t-45.5 14.5t-25 12.5l25 80q22 -11 65.5 -25t109.5 -14q58 0 101.5 20t73 56.5t44.5 87.5t15 113t-14.5 113t-43.5 87.5t-73 56.5t-103 20q-66 0 -108.5 -13.5t-64.5 -24.5l-25 77
q7 5 24.5 13t44.5 15.5t62.5 12.5t77.5 5q73 0 133 -24.5t103 -71t66.5 -113.5t23.5 -153z" />
    <glyph glyph-name="uni0187" unicode="&#x187;" horiz-adv-x="663" 
d="M384 -15q-73 0 -133 24t-103 70t-66.5 113.5t-23.5 154.5t26.5 154.5t71.5 113.5t105 70t128 24q41 -2 69 -7.5t52 -13.5q16 52 47.5 75t94.5 23q14 0 33 -3.5t30 -8.5l-16 -71q-8 3 -21.5 5t-21.5 2q-28 0 -44 -11t-25 -29t-13.5 -40.5t-10.5 -44.5q-9 4 -26 10.5
t-39 13t-47.5 11t-51.5 4.5q-55 0 -99 -19t-75 -55t-47.5 -87.5t-16.5 -115.5q0 -62 14.5 -113t43.5 -87.5t72.5 -56.5t101.5 -20q67 0 111 14t66 25l25 -80q-7 -5 -25 -12.5t-45 -14.5t-63 -12t-78 -5z" />
    <glyph glyph-name="uni0188" unicode="&#x188;" horiz-adv-x="508" 
d="M418 430q-6 2 -17.5 5.5t-26.5 7t-32 6t-33 2.5q-78 0 -119.5 -49t-41.5 -143q0 -42 9.5 -77t30 -60t52.5 -38.5t78 -13.5q37 0 67 7t47 15l13 -78q-8 -5 -23 -9.5t-34 -8t-40.5 -6t-41.5 -2.5q-63 0 -110.5 20t-80 56t-48.5 85.5t-16 109.5t17.5 110t49.5 86.5t78.5 57
t103.5 20.5q30 0 60 -6q18 56 49 79t90 23q14 0 32 -3.5t29 -8.5l-16 -67q-8 3 -20.5 5t-20.5 2q-26 0 -41 -11t-23.5 -29t-12.5 -40.5z" />
    <glyph glyph-name="uni0189" unicode="&#x189;" horiz-adv-x="726" 
d="M668 347q0 -90 -28 -156.5t-79 -110t-122 -65t-156 -21.5q-42 0 -92.5 3.5t-91.5 13.5v313h-80v75h80v284q41 10 91.5 13.5t92.5 3.5q85 0 156 -21.5t122 -65t79 -110t28 -156.5zM291 79q138 0 206 70.5t68 197.5t-68 197.5t-206 70.5q-41 0 -63.5 -1t-31.5 -2v-213h130
v-75h-130v-242q9 -1 31.5 -2t63.5 -1z" />
    <glyph glyph-name="uni018A" unicode="&#x18a;" horiz-adv-x="814" 
d="M756 347q0 -90 -28 -156.5t-79 -110t-122 -65t-156 -21.5q-42 0 -92.5 3.5t-91.5 13.5v598q-92 -5 -92 -77q0 -8 0.5 -16.5t1.5 -14.5l-77 -9q-2 7 -4 21t-2 28q0 59 29.5 91t78.5 47t113.5 18t135.5 3q85 0 156 -21.5t122 -65t79 -110t28 -156.5zM379 79q138 0 206 70.5
t68 197.5t-68 197.5t-206 70.5q-45 0 -69.5 -0.5t-25.5 -0.5v-532q11 -1 25 -2q12 -1 29.5 -1h40.5z" />
    <glyph glyph-name="uni018B" unicode="&#x18b;" horiz-adv-x="625" 
d="M111 612v81h428v-683q-20 -5 -44 -8t-49 -5t-49 -3t-45 -1q-146 0 -226 55.5t-80 165.5q0 60 21 101.5t61 68t97.5 38.5t130.5 12h86v178h-331zM344 78h41t31 1q15 1 26 2v273h-82q-50 0 -89.5 -6.5t-66.5 -22.5t-41.5 -43t-14.5 -69q0 -40 16 -66t43 -41.5t62.5 -21.5
t74.5 -6z" />
    <glyph glyph-name="uni018C" unicode="&#x18c;" horiz-adv-x="589" 
d="M416 406q-17 14 -49 27t-70 13q-40 0 -68.5 -14t-46.5 -39t-26 -59.5t-8 -74.5q0 -91 45 -140t120 -49q38 0 63.5 3.5t39.5 7.5v325zM108 693v78h401v-756q-32 -9 -82 -18t-115 -9q-60 0 -108 18.5t-82 54t-52.5 85.5t-18.5 113q0 60 15.5 109.5t45.5 85t73.5 55
t99.5 19.5q45 0 79.5 -12t51.5 -23v200h-308z" />
    <glyph glyph-name="uni018D" unicode="&#x18d;" horiz-adv-x="582" 
d="M531 290q0 -35 -12 -69.5t-33.5 -66t-51.5 -57.5t-66 -42q33 -20 55 -45t22 -63q0 -36 -15.5 -61t-42 -41t-60.5 -23t-70 -7q-25 0 -50 2.5t-47 6.5t-38.5 8.5t-24.5 7.5l17 76q15 -7 52 -17t89 -10q48 0 74 10.5t26 39.5q0 21 -12.5 35t-33.5 26t-48.5 24.5t-57.5 29.5
q-69 38 -110.5 92t-41.5 138q0 42 11.5 86.5t39.5 80.5t75.5 59t119.5 23q59 0 103 -21t73 -55t43.5 -77.5t14.5 -89.5zM226 137q15 -11 32 -21t34 -19q32 13 59 33.5t46.5 46t30 54.5t10.5 59q0 33 -9 62.5t-26.5 52t-44 35.5t-61.5 13q-46 0 -75.5 -15.5t-46 -40t-23 -54
t-6.5 -56.5q0 -29 6 -51t16.5 -40t25 -32t32.5 -27z" />
    <glyph glyph-name="uni018E" unicode="&#x18e;" horiz-adv-x="571" 
d="M37 0v83h351v240h-290v81h290v206h-326v83h423v-693h-448z" />
    <glyph glyph-name="uni018F" unicode="&#x18f;" horiz-adv-x="705" 
d="M546 370q-9 129 -68.5 191.5t-181.5 62.5q-32 0 -58.5 -4.5t-47.5 -11t-36.5 -13.5t-25.5 -12l-24 80q8 6 26 13.5t44 15t60 12.5t73 5q87 0 151 -27t106 -75t62.5 -114t20.5 -143q0 -92 -24 -160t-66 -114t-98.5 -68.5t-122.5 -22.5q-131 0 -205.5 87t-74.5 260
q0 8 1 20t2 18h487zM158 291q0 -49 12 -90t34.5 -70.5t56 -46t77.5 -16.5q51 0 88.5 20t62.5 51.5t38 71.5t16 80h-385z" />
    <glyph glyph-name="uni0190" unicode="&#x190;" horiz-adv-x="572" 
d="M427 326h-62q-45 0 -83.5 -5.5t-67 -20.5t-45 -40.5t-16.5 -65.5q0 -68 47.5 -96.5t132.5 -28.5q31 0 59 5t51 12t41.5 15t29.5 14l29 -80q-11 -6 -31 -15t-47 -16.5t-61 -13t-72 -5.5q-63 0 -115 11.5t-88.5 36.5t-57 64.5t-20.5 94.5q0 40 12.5 70t33 52.5t48 37
t57.5 22.5q-59 19 -89.5 61t-30.5 90q0 47 18 81.5t50 57t76 33.5t96 11q31 0 61.5 -3.5t56 -9.5t46 -13.5t32.5 -15.5l-31 -79q-21 13 -65 25.5t-99 12.5q-64 0 -102.5 -28.5t-38.5 -73.5q0 -35 18 -58t46 -36.5t62 -18.5t67 -5h52v-79z" />
    <glyph glyph-name="uni0191" unicode="&#x191;" horiz-adv-x="537" 
d="M86 693h418v-81h-321v-212h285v-79h-285v-321q0 -46 -6.5 -81t-23 -58.5t-45.5 -35.5t-74 -12q-14 0 -32.5 2.5t-29.5 5.5l9 73q8 -3 21.5 -4t21.5 -1q37 0 49.5 24.5t12.5 69.5v710z" />
    <glyph glyph-name="uni0193" unicode="&#x193;" horiz-adv-x="672" 
d="M509 338h97v-321q-12 -4 -34.5 -9t-52 -10t-64.5 -8.5t-71 -3.5q-73 0 -133 24t-103 70t-66.5 113t-23.5 154t26 154.5t70.5 113.5t104.5 70t129 24q45 0 74 -6.5t53 -14.5q16 52 47.5 75t94.5 23q14 0 33 -3.5t30 -8.5l-16 -71q-8 3 -21.5 5t-21.5 2q-28 0 -44 -11
t-25 -29t-13.5 -40.5t-10.5 -44.5q-9 4 -26.5 10.5t-40.5 13t-50.5 11t-57.5 4.5q-53 0 -96 -19t-73 -55t-46.5 -87.5t-16.5 -115.5q0 -62 14.5 -113t44 -87.5t73 -56.5t102.5 -20q42 0 71.5 4.5t42.5 8.5v255z" />
    <glyph glyph-name="uni0194" unicode="&#x194;" horiz-adv-x="650" 
d="M272 158l-65 119l-64 126l-65 137l-70 153h101l105.5 -224.5l111.5 -226.5l111 226l106 225h99l-70.5 -152.5l-65.5 -136.5l-63.5 -125l-64.5 -118l12 -21q16 -29 31 -53.5t25.5 -46.5t17 -43t6.5 -43t-7 -46.5t-24 -44.5t-45 -33.5t-69 -13.5t-69 13.5t-45 33.5
t-24 44.5t-7 46.5t7 43t18 43t26 46.5t31 53.5zM325 87l-39 -64q-20 -32 -20 -64q0 -27 15 -46.5t44 -19.5t44 19.5t15 46.5q0 32 -20 64z" />
    <glyph glyph-name="uni0195" unicode="&#x195;" horiz-adv-x="891" 
d="M490 234q0 -88 28.5 -124.5t88.5 -36.5t88.5 36.5t28.5 124.5v286h93v-299q0 -44 -8.5 -86t-31.5 -74.5t-64 -52t-106 -19.5t-106 19.5t-64 52t-31.5 74.5t-8.5 86v51q0 48 -5.5 82t-19.5 55t-38.5 30.5t-61.5 9.5q-30 0 -59 -6t-40 -11v-432h-93v760l93 16v-266
q26 10 53 15.5t56 5.5q63 0 103.5 -17.5t64 -49t32 -75.5t8.5 -97v-58z" />
    <glyph glyph-name="uni0196" unicode="&#x196;" horiz-adv-x="376" 
d="M86 693h97v-508q0 -62 23.5 -89t71.5 -27q26 0 43.5 4.5t28.5 8.5l18 -80q-13 -6 -41.5 -11.5t-62.5 -5.5q-96 0 -137 48.5t-41 155.5v504z" />
    <glyph glyph-name="uni0197" unicode="&#x197;" horiz-adv-x="325" 
d="M14 399h100v294h97v-294h100v-75h-100v-324h-97v324h-100v75z" />
    <glyph glyph-name="uni0198" unicode="&#x198;" horiz-adv-x="664" 
d="M282 372q43 -31 92.5 -75.5t97.5 -94.5t89.5 -102.5t68.5 -99.5h-114q-30 47 -70 94.5t-84.5 91t-90.5 80.5t-88 63v-329h-97v693h97v-310l47.5 58.5l55 67l58.5 68.5l58 63q30 32 57.5 49.5t72.5 17.5q42 0 71 -15.5t44 -32.5l-44 -69q-17 16 -35.5 24t-32.5 8
q-22 0 -37.5 -10.5t-35.5 -31.5q-57 -58 -99.5 -109z" />
    <glyph glyph-name="uni0199" unicode="&#x199;" horiz-adv-x="522" 
d="M268 286q30 -23 63.5 -57t66 -73.5t61.5 -80t49 -75.5h-109q-21 35 -48.5 71.5t-57.5 70t-61 61.5t-59 47v-250h-93v589q0 46 6.5 81t23 58.5t45.5 35.5t74 12q14 0 32.5 -2.5t29.5 -5.5l-9 -73q-8 3 -21.5 4t-21.5 1q-37 0 -51.5 -24.5t-14.5 -69.5v-304l53 53l57 59
l53 57.5l43 48.5h109l-50 -55l-56 -60.5l-58.5 -61z" />
    <glyph glyph-name="uni019A" unicode="&#x19a;" horiz-adv-x="287" 
d="M250 -10q-86 2 -122 37t-36 109v231h-78v70h78v323l93 16v-339h92v-70h-92v-216q0 -23 4 -38t13 -24t24 -13.5t37 -7.5z" />
    <glyph glyph-name="uni019B" unicode="&#x19b;" horiz-adv-x="510" 
d="M264 426q-27 -54 -50.5 -111.5t-43 -113t-34.5 -107t-25 -94.5h-95q14 58 36 124t49 135t58.5 137t63.5 130l-23 53l-106 -36l-23 63l100 34q-17 29 -36.5 44t-48.5 15q-14 0 -24.5 -2t-15.5 -4l-13 75q5 2 23.5 5t42.5 3q60 0 96.5 -29.5t60.5 -77.5l124 43l23 -63
l-119 -41q34 -82 64.5 -163.5t57 -159.5t48 -150t38.5 -135h-97l-58.5 205t-72.5 221z" />
    <glyph glyph-name="uni019C" unicode="&#x19c;" horiz-adv-x="975" 
d="M500 45q-11 -7 -29.5 -17.5t-43 -20t-54.5 -16t-64 -6.5q-69 0 -112.5 20.5t-68 57.5t-33.5 88t-9 111v431h97v-406q0 -57 6 -98t21 -67.5t41.5 -39t68.5 -12.5q22 0 43.5 4t39.5 10.5t32 14.5t23 15q-10 32 -14.5 70.5t-4.5 77.5v431h97v-406q0 -57 6 -98t21 -67.5
t41.5 -39t67.5 -12.5q16 0 34 1t35 3t30.5 4t20.5 4v611h97v-681q-37 -10 -98 -18.5t-130 -8.5q-51 0 -91 14t-70 46z" />
    <glyph glyph-name="uni019D" unicode="&#x19d;" horiz-adv-x="728" 
d="M561 0l-50.5 83l-61.5 95.5l-68.5 100.5l-70.5 98.5l-68 89.5t-61 74v-541q0 -46 -6 -81t-22 -58.5t-45 -35.5t-74 -12q-14 0 -32.5 2.5t-29.5 5.5l9 73q8 -3 21.5 -4t21.5 -1q37 0 49.5 24.5t12.5 69.5v710h77q47 -50 100.5 -116.5l106 -137l99 -138.5t78.5 -121v513h95
v-693h-81z" />
    <glyph glyph-name="uni019E" unicode="&#x19e;" 
d="M80 505q32 8 85 17t122 9q62 0 103 -17.5t65.5 -49t34.5 -75.5t10 -97v-477h-93v457q0 48 -6.5 82t-21.5 55t-40 30.5t-62 9.5q-15 0 -31 -1t-30.5 -2.5t-26 -3.5t-16.5 -3v-439h-93v505z" />
    <glyph glyph-name="uni019F" unicode="&#x19f;" horiz-adv-x="778" 
d="M58 347q0 89 26.5 157t72 113.5t106 68.5t128.5 23q67 0 126.5 -23t104.5 -68.5t71.5 -113.5t26.5 -157t-26.5 -157t-71.5 -113.5t-104.5 -68.5t-126.5 -23q-68 0 -128.5 23t-106 68.5t-72 113.5t-26.5 157zM389 70q49 0 89 17t69 48.5t46.5 76t21.5 100.5h-454
q9 -112 68.5 -177t159.5 -65zM389 624q-100 0 -159 -63t-69 -174h454q-5 55 -22.5 98.5t-47 74.5t-69 47.5t-87.5 16.5z" />
    <glyph glyph-name="Ohorn" unicode="&#x1a0;" horiz-adv-x="778" 
d="M160 347q0 -63 16 -114.5t45.5 -87.5t72 -55.5t95.5 -19.5q52 0 94.5 19.5t72 55.5t45.5 87.5t16 114.5t-16 114.5t-45.5 87.5t-72 55.5t-94.5 19.5q-53 0 -95.5 -19.5t-72 -55.5t-45.5 -87.5t-16 -114.5zM721 765q0 -48 -20.5 -91t-58.5 -79q36 -45 57 -107t21 -141
q0 -89 -26.5 -157t-71.5 -113.5t-104.5 -68.5t-126.5 -23q-68 0 -128.5 23t-106 68.5t-72 113.5t-26.5 157t26.5 157t72 113.5t106 68.5t128.5 23q55 0 105 -15.5t92 -47.5q26 29 33 55.5t7 61.5q0 10 -0.5 21t-1.5 17h94q1 -11 1 -20.5v-15.5z" />
    <glyph glyph-name="ohorn" unicode="&#x1a1;" horiz-adv-x="590" 
d="M51 260q0 61 18 111.5t50.5 86.5t77.5 55.5t98 19.5q46 0 86 -15t71 -43q24 29 31 54.5t7 60.5q0 10 -0.5 21t-1.5 17h92q1 -11 1 -20.5v-15.5q0 -101 -82 -174q19 -32 29.5 -72t10.5 -86q0 -62 -18 -112t-50.5 -86t-77.5 -55.5t-98 -19.5t-98 19.5t-77.5 55.5t-50.5 86
t-18 112zM148 260q0 -88 39 -139.5t108 -51.5t108 51.5t39 139.5t-39 139.5t-108 51.5t-108 -51.5t-39 -139.5z" />
    <glyph glyph-name="uni01A2" unicode="&#x1a2;" horiz-adv-x="1024" 
d="M375 708q51 0 98.5 -15t86.5 -44q23 19 65.5 39t100.5 20q69 0 110.5 -19t64 -53.5t30 -84t7.5 -109.5v-442h-97v417q0 57 -6.5 96t-20.5 63.5t-38 35.5t-58 11q-32 0 -56.5 -10.5t-41.5 -22.5q33 -45 52.5 -105.5t19.5 -137.5q0 -89 -25 -156.5t-68.5 -113t-101 -68.5
t-122.5 -23t-122.5 23t-101 68.5t-69 113t-25.5 156.5t25.5 156.5t69 113t101.5 68.5t122 23zM375 71q51 0 91 19.5t67.5 55.5t42 87t14.5 114t-14.5 114t-42 87t-67.5 55.5t-91 19.5t-91 -19.5t-68 -55.5t-42.5 -87t-14.5 -114t14.5 -114t42.5 -87t68 -55.5t91 -19.5z" />
    <glyph glyph-name="uni01A3" unicode="&#x1a3;" horiz-adv-x="821" 
d="M526 260q0 -62 -18 -112t-49.5 -86t-75 -55.5t-94.5 -19.5t-94.5 19.5t-75.5 55.5t-50 86t-18 112q0 61 18 111.5t50 86.5t75.5 55.5t94.5 19.5q39 0 73.5 -12t63.5 -34q20 14 56.5 29t80.5 15q60 0 96 -17.5t55.5 -49.5t26 -76t6.5 -96v-477h-93v457q0 46 -4 79t-15 55
t-31 32.5t-51 10.5q-26 0 -43 -6.5t-29 -14.5q21 -34 33 -76t12 -92zM430 260q0 88 -38 139.5t-103 51.5t-103 -51.5t-38 -139.5t38 -139.5t103 -51.5t103 51.5t38 139.5z" />
    <glyph glyph-name="uni01A4" unicode="&#x1a4;" horiz-adv-x="710" 
d="M372 700q146 0 224.5 -55.5t78.5 -165.5q0 -60 -21.5 -101.5t-62 -68t-98.5 -38.5t-131 -12h-77v-259h-97v609q-92 -5 -92 -77q0 -8 0.5 -16.5t1.5 -14.5l-77 -9q-2 7 -4 21t-2 28q0 59 29.5 91t78.5 47t113.5 18t135.5 3zM380 615q-46 0 -69 -0.5t-26 -0.5v-275h73
q50 0 90 6.5t67.5 22.5t42.5 43t15 69q0 40 -15.5 66t-42 41.5t-61.5 21.5t-74 6z" />
    <glyph glyph-name="uni01A5" unicode="&#x1a5;" horiz-adv-x="589" 
d="M441 259q0 91 -45 140.5t-120 49.5q-15 0 -31 -2t-30.5 -4.5t-25.5 -5.5t-16 -5v-322q17 -14 49 -27t70 -13q40 0 68.5 14.5t46.5 40t26 60t8 74.5zM538 259q0 -59 -15.5 -109t-45.5 -86t-73.5 -56t-99.5 -20q-45 0 -79.5 12t-51.5 23v-208h-93v774q0 46 6.5 81t23 58.5
t45.5 35.5t74 12q14 0 32.5 -2.5t29.5 -5.5l-9 -73q-8 3 -21.5 4t-21.5 1q-37 0 -51.5 -24.5t-14.5 -69.5v-95q26 9 54.5 14.5t54.5 5.5q57 0 104.5 -19t81 -54t52 -85.5t18.5 -113.5z" />
    <glyph glyph-name="uni01A6" unicode="&#x1a6;" horiz-adv-x="629" 
d="M422 292q17 -21 45 -59.5t60.5 -90.5t67.5 -116t66 -135h-104q-72 146 -133 241t-100 141h-141v-273h-97v776h97v-82q37 3 87 3q146 0 222.5 -53.5t76.5 -162.5q0 -68 -38.5 -116.5t-108.5 -72.5zM278 615h-54t-41 -2v-261h69q50 0 90 4.5t67.5 18.5t42.5 39.5t15 67.5
q0 39 -15 65t-40.5 41t-60 21t-73.5 6z" />
    <glyph glyph-name="uni01A7" unicode="&#x1a7;" horiz-adv-x="532" 
d="M285 69q68 0 115 16t70 29l29 -80q-11 -6 -30.5 -14.5t-46.5 -16t-61.5 -13t-75.5 -5.5q-121 0 -187.5 49t-66.5 140q0 49 15 83.5t42.5 59.5t65 43t82.5 36q31 12 58 24t47 26.5t31 33.5t11 47q0 25 -10.5 43.5t-28.5 30.5t-42 18t-52 6q-55 0 -96.5 -12.5t-62.5 -25.5
l-31 79q24 16 75.5 29.5t114.5 13.5q109 0 171 -51t62 -142q0 -44 -14.5 -75t-39.5 -53.5t-59 -39t-72 -29.5q-33 -12 -62.5 -24t-52.5 -28.5t-36.5 -39t-13.5 -54.5q0 -104 152 -104z" />
    <glyph glyph-name="uni01A8" unicode="&#x1a8;" horiz-adv-x="446" 
d="M245 67q58 0 93 12t51 18l17 -80q-14 -6 -53 -17.5t-108 -11.5q-98 0 -152 37t-54 109q0 37 11 62.5t32 43.5t50 31.5t65 27.5q55 21 81.5 39t26.5 53q0 33 -29 48.5t-68 15.5q-45 0 -77 -8.5t-47 -16.5l-17 80q8 3 22.5 7t33.5 7.5t40.5 6t44.5 2.5q88 0 139 -40.5
t51 -109.5q0 -35 -12 -59t-32 -41t-47.5 -29.5t-57.5 -24.5q-62 -25 -89 -45t-27 -54q0 -33 27.5 -48t84.5 -15z" />
    <glyph glyph-name="uni01A9" unicode="&#x1a9;" horiz-adv-x="563" 
d="M372 361q-55 -72 -117 -141.5t-109 -136.5h377v-83h-490v73q19 31 45.5 65l57 70.5l62.5 74.5l62 77l-59.5 76l-59 73.5l-53 66.5t-41.5 56v61h475v-83h-347q14 -21 36.5 -49.5l49 -61l55.5 -68z" />
    <glyph glyph-name="uni01AA" unicode="&#x1aa;" horiz-adv-x="286" 
d="M206 -26q0 -23 4 -38t13 -24t24 -13.5t37 -7.5l-13 -78q-86 2 -122 37t-36 109v569q-33 -20 -76 -20q-34 0 -58.5 12t-40 30.5t-23 42.5t-7.5 48q0 18 6.5 41.5t23 44.5t44 35t69.5 14q85 0 120 -48t35 -133v-621zM113 621q0 40 -17 61.5t-51 21.5q-32 0 -48.5 -20.5
t-16.5 -43.5q0 -11 3.5 -22.5t11 -21.5t20 -16t30.5 -6q22 0 38 8.5t30 24.5v14z" />
    <glyph glyph-name="uni01AB" unicode="&#x1ab;" horiz-adv-x="402" 
d="M167 520h197v-78h-197v-240q0 -39 6 -64.5t18 -40t30 -20.5t42 -6q43 0 72 5t39 7q1 -6 2 -17l2 -23t1.5 -23.5t0.5 -19.5q0 -43 -5 -77.5t-19.5 -59t-41.5 -37.5t-71 -13q-14 0 -32 2.5t-29 5.5l8 68q6 -2 20 -3.5t22 -1.5q38 0 51 25t13 70q0 2 -0.5 5.5t-0.5 6.5v6
l-29 -2.5t-34 -1.5q-85 0 -121.5 51.5t-36.5 156.5v464l93 16v-161z" />
    <glyph glyph-name="uni01AC" unicode="&#x1ac;" horiz-adv-x="592" 
d="M191 612q-42 0 -67 -21.5t-25 -58.5q0 -8 0.5 -16.5t1.5 -14.5l-80 -9q-2 7 -4 21t-2 28q0 45 16 74.5t40.5 46.5t55 24t60.5 7h389v-81h-218v-612h-97v612h-70z" />
    <glyph glyph-name="uni01AD" unicode="&#x1ad;" horiz-adv-x="402" 
d="M167 520h203v-78h-203v-240q0 -39 6 -64.5t18 -40t30 -20.5t42 -6q43 0 68 9.5t34 13.5l19 -76q-14 -7 -49 -18t-80 -11q-53 0 -87.5 13.5t-55.5 40.5t-29.5 66.5t-8.5 91.5v366q0 100 48.5 154.5t154.5 54.5q42 0 71 -6t41 -11l-17 -80q-12 6 -34 11.5t-54 5.5
q-65 0 -91 -35.5t-26 -95.5v-45z" />
    <glyph glyph-name="uni01AE" unicode="&#x1ae;" horiz-adv-x="565" 
d="M331 -17q0 -45 12.5 -69.5t49.5 -24.5q8 0 21.5 1t21.5 4l9 -73q-11 -3 -29.5 -5.5t-32.5 -2.5q-45 0 -74 12t-45.5 35.5t-23 58.5t-6.5 81v612h-218v81h533v-81h-218v-629z" />
    <glyph glyph-name="Uhorn" unicode="&#x1af;" horiz-adv-x="710" 
d="M733 801q1 -11 1 -20.5v-15.5q0 -23 -6 -46t-21 -42.5t-39.5 -33t-60.5 -17.5v-368q0 -58 -15.5 -108t-48 -86.5t-82 -57.5t-117.5 -21t-118 21t-82 57.5t-47.5 86.5t-15.5 108v435h97v-424q0 -52 12 -89.5t34 -61.5t52.5 -35.5t67.5 -11.5t67.5 11.5t52.5 35.5t34 61.5
t12 89.5v424h73q23 0 40.5 17t17.5 53q0 10 -0.5 21t-1.5 17h94z" />
    <glyph glyph-name="uhorn" unicode="&#x1b0;" horiz-adv-x="597" 
d="M619 592q0 -23 -6 -46t-20 -42t-38.5 -32.5t-60.5 -17.5v-439q-32 -8 -84.5 -17t-121.5 -9q-60 0 -101 17.5t-66 49.5t-36 75.5t-11 96.5v292h93v-272q0 -95 30 -136t101 -41q15 0 31 1t30.5 2.5t25.5 3t16 3.5v439h69q23 0 40.5 17t17.5 53q0 10 -0.5 21t-1.5 17h92
q1 -11 1 -20.5v-15.5z" />
    <glyph glyph-name="uni01B1" unicode="&#x1b1;" horiz-adv-x="784" 
d="M392 -16q-65 0 -123.5 21.5t-103 64t-71 105.5t-26.5 146q0 47 11 90t29 80t41 67.5t46 52.5h-143v82h267v-68q-32 -26 -59 -56.5t-47 -67.5t-31.5 -81.5t-11.5 -98.5q0 -59 16 -106t45 -79.5t70 -49.5t91 -17t91 17t70 49.5t45 79.5t16 106q0 54 -11.5 98.5t-31.5 81.5
t-47.5 67.5t-58.5 56.5v68h267v-82h-143q23 -22 46 -52.5t41 -67.5t29 -80t11 -90q0 -83 -26.5 -146t-71 -105.5t-103.5 -64t-123 -21.5z" />
    <glyph glyph-name="uni01B2" unicode="&#x1b2;" horiz-adv-x="694" 
d="M628 356q0 -66 -13.5 -132t-47 -119.5t-89.5 -86.5t-141 -33q-69 0 -117.5 21t-79.5 57.5t-45 86.5t-14 108v435h97v-424q0 -52 12 -89.5t33 -61.5t49.5 -35.5t61.5 -11.5q97 0 145.5 67.5t48.5 210.5q0 133 -32.5 199t-109.5 66q-14 0 -22.5 -0.5t-14.5 -1.5l-3 81
q12 2 27.5 2.5t29.5 0.5q64 0 107 -25.5t69 -71t37.5 -108t11.5 -135.5z" />
    <glyph glyph-name="uni01B3" unicode="&#x1b3;" horiz-adv-x="672" 
d="M251 0v279q-69 106 -130 210l-115 204h114q39 -82 86 -166.5t96 -162.5q11 23 30.5 60.5l40 75.5l38 70.5t25.5 45.5q26 43 52 65t73 22q44 0 73 -16.5t50 -37.5l-48 -66q-18 18 -32 26.5t-34 8.5t-33 -9.5t-27 -33.5q-14 -22 -35.5 -60l-44.5 -81l-45 -84.5l-37 -69.5
v-280h-97z" />
    <glyph glyph-name="uni01B4" unicode="&#x1b4;" horiz-adv-x="570" 
d="M501 455q-29 0 -43 -15.5t-22 -45.5q-29 -118 -61.5 -219.5t-70.5 -190.5q-20 -45 -41 -77t-47 -52.5t-58.5 -30t-73.5 -9.5q-11 0 -23 1.5t-23.5 4t-21 5.5t-13.5 5l17 75q11 -5 28.5 -9.5t34.5 -4.5q27 0 48 5.5t37.5 17.5t30 31.5t25.5 46.5q-63 119 -117.5 254.5
t-90.5 272.5h100q11 -45 26.5 -97t34.5 -107t41 -110.5t47 -106.5q13 39 24.5 77t22 76.5t20.5 79l21 84.5q13 55 42 86t91 31q20 0 40.5 -4t41.5 -11l-16 -72q-18 9 -51 9z" />
    <glyph glyph-name="uni01B5" unicode="&#x1b5;" horiz-adv-x="573" 
d="M526 616q-32 -36 -78 -92.5t-95 -124.5h153v-75h-206l-83.5 -125t-68.5 -118h388v-81h-503v65q29 55 70.5 122.5t88.5 136.5h-119v75h172l87 118t77 95h-358v81h475v-77z" />
    <glyph glyph-name="uni01B6" unicode="&#x1b6;" horiz-adv-x="471" 
d="M425 451q-20 -21 -52.5 -58.5t-69.5 -85.5h112v-66h-162l-58.5 -84t-51.5 -81h290v-76h-397v58q21 41 51.5 88t65.5 95h-88v66h137l59 76l50 61h-261v76h375v-69z" />
    <glyph glyph-name="uni01B7" unicode="&#x1b7;" horiz-adv-x="567" 
d="M184 391l52.5 55l53.5 60l49 58l39 48h-321v81h444v-58q-15 -22 -38 -51t-51 -60.5l-58 -63.5l-58 -62q45 -5 85.5 -19t70.5 -38.5t47.5 -61.5t17.5 -86q0 -54 -20.5 -93.5t-57 -65t-88.5 -37.5t-115 -12q-38 0 -72 5.5t-61 13t-47 16.5t-31 15l29 80q11 -6 29.5 -14
t41.5 -15t51 -12t59 -5q85 0 132.5 29t47.5 97q0 40 -16.5 66.5t-45 42.5t-67 22.5t-83.5 6.5h-19v58z" />
    <glyph glyph-name="uni01B8" unicode="&#x1b8;" horiz-adv-x="567" 
d="M383 333h-19q-45 0 -83.5 -6.5t-67 -22.5t-45 -42.5t-16.5 -66.5q0 -68 47.5 -97t132.5 -29q31 0 59 5t51 12t41.5 15t29.5 14l29 -80q-11 -6 -31 -15t-47 -16.5t-61 -13t-72 -5.5q-63 0 -115 12t-88.5 37.5t-57 65t-20.5 93.5q0 49 17.5 86t47.5 61.5t70.5 38.5t85.5 19
l-58.5 62l-57.5 63.5t-51 60.5t-38 51v58h444v-81h-321l39 -48l49 -58l53.5 -60l52.5 -55v-58z" />
    <glyph glyph-name="uni01B9" unicode="&#x1b9;" horiz-adv-x="471" 
d="M351 159h-17q-38 0 -74 -5t-64 -19t-44.5 -38.5t-16.5 -63.5q0 -65 43 -100.5t124 -35.5q47 0 88 9t64 20l20 -80q-25 -13 -71.5 -22t-101.5 -9q-59 0 -107 13.5t-82.5 40.5t-53 67.5t-18.5 94.5q0 49 16 83.5t43.5 57t65 35.5t79.5 19l-51.5 60.5t-50.5 65l-44.5 62
t-34.5 52.5v54h388v-78h-273q13 -21 33.5 -48.5l44 -58l48.5 -60.5l47 -55v-61z" />
    <glyph glyph-name="uni01BA" unicode="&#x1ba;" horiz-adv-x="474" 
d="M8 -114q0 33 11.5 53.5t31 34t44.5 21.5t53 15q36 9 69 16t58.5 19t41 31.5t15.5 51.5q0 45 -44 68.5t-151 26.5v62q51 45 92.5 86.5t66.5 70.5h-274v78h387v-57q-32 -41 -75.5 -86.5t-97.5 -93.5q48 -7 84 -18.5t59.5 -30.5t35.5 -47t12 -67q0 -48 -18.5 -77.5t-51 -49
t-76 -31t-93.5 -23.5q-14 -3 -31 -7t-32 -11.5t-25 -19.5t-10 -31q0 -15 3.5 -27t5.5 -17l-73 -15q-6 11 -12 29t-6 46z" />
    <glyph glyph-name="uni01BB" unicode="&#x1bb;" horiz-adv-x="545" 
d="M85 361h189q35 35 59.5 71.5t24.5 80.5q0 30 -9 51t-24.5 35t-36 20.5t-44.5 6.5q-33 0 -59 -8t-46 -18.5t-33 -22l-20 -17.5l-46 68q14 14 33.5 28.5t44.5 26t56.5 19t69.5 7.5q103 0 159.5 -48.5t56.5 -140.5q0 -42 -20.5 -81.5t-52.5 -77.5h87v-73h-154l-56 -57
q-42 -43 -72 -80.5t-32 -69.5h319v-81h-425q-4 46 7 85.5t32 74.5t49.5 66.5t58.5 61.5h-116v73z" />
    <glyph glyph-name="uni01BC" unicode="&#x1bc;" horiz-adv-x="538" 
d="M197 426q152 -7 230.5 -66.5t78.5 -162.5q0 -46 -16 -85t-49.5 -67t-84.5 -44t-120 -16q-29 0 -58.5 4t-55 10t-44.5 12t-27 10l17 82q8 -4 24.5 -10t38 -11.5t48 -9.5t54.5 -4q47 0 79.5 10t53 27t29.5 39.5t9 47.5q0 38 -15.5 67t-51 49t-93.5 30t-143 10l7.5 72t6 66
t4.5 63l4 63h-97v81h452v-81h-266q-1 -14 -3 -39l-4 -52.5l-4 -53.5t-4 -41z" />
    <glyph glyph-name="uni01BD" unicode="&#x1bd;" horiz-adv-x="496" 
d="M452 150q0 -75 -58.5 -118.5t-170.5 -43.5q-28 0 -56.5 3.5t-53 8t-42.5 9.5t-25 8l17 78q6 -3 21.5 -7.5t37 -9.5t47 -8.5t52.5 -3.5q71 0 104.5 21.5t33.5 62.5q0 28 -10 47.5t-35 31.5t-67 17.5t-106 5.5h-50q7 56 11 101t7 93h-81v74h402v-74h-240q-1 -12 -2 -28.5
t-2.5 -34t-3.5 -33t-3 -26.5h21q57 0 103.5 -10t79.5 -31.5t51 -54.5t18 -78z" />
    <glyph glyph-name="uni01BE" unicode="&#x1be;" horiz-adv-x="463" 
d="M74 665l94 16v-161h197v-77h-197v-38q0 -20 5 -35.5t16.5 -28t30 -23t46.5 -20.5q36 -14 65 -27.5t50 -31.5t32 -43t11 -62q0 -72 -56.5 -109t-154.5 -37q-69 0 -110.5 11.5t-55.5 17.5l17 80q15 -7 53 -18.5t96 -11.5q57 0 87 15t30 48q0 34 -27 54.5t-89 45.5
q-30 12 -56 24.5t-44.5 31.5t-29 47.5t-10.5 72.5v259z" />
    <glyph glyph-name="uni01BF" unicode="&#x1bf;" horiz-adv-x="571" 
d="M424 300q0 69 -39 108.5t-109 39.5q-42 0 -65.5 -6t-37.5 -11v-398q44 16 89 36t81 51t58.5 74.5t22.5 105.5zM521 298q0 -80 -28 -136.5t-76 -97t-111 -69t-133 -51.5v-129h-93v675q32 12 82 26.5t115 14.5q57 0 102 -16t76.5 -46.5t48.5 -73.5t17 -97z" />
    <glyph glyph-name="uni01C0" unicode="&#x1c0;" horiz-adv-x="279" 
d="M96 783h87v-968h-87v968z" />
    <glyph glyph-name="uni01C1" unicode="&#x1c1;" horiz-adv-x="483" 
d="M300 783h87v-968h-87v968zM96 783h87v-968h-87v968z" />
    <glyph glyph-name="uni01C2" unicode="&#x1c2;" horiz-adv-x="569" 
d="M241 783h87v-347h197v-74h-197v-118h197v-74h-197v-355h-87v355h-197v74h197v118h-197v74h197v347z" />
    <glyph glyph-name="uni01C3" unicode="&#x1c3;" horiz-adv-x="276" 
d="M188 505q0 -84 -6 -152.5t-15 -136.5h-58q-9 68 -15 136.5t-6 152.5v188h100v-188zM205 54q0 -27 -18 -47t-49 -20t-49 20t-18 47t18 47t49 20t49 -20t18 -47z" />
    <glyph glyph-name="uni01C4" unicode="&#x1c4;" horiz-adv-x="1290" 
d="M655 347q0 -90 -28 -156.5t-79 -110t-122 -65t-156 -21.5q-42 0 -92.5 3.5t-91.5 13.5v672q41 10 91.5 13.5t92.5 3.5q85 0 156 -21.5t122 -65t79 -110t28 -156.5zM278 79q138 0 206 70.5t68 197.5t-68 197.5t-206 70.5q-41 0 -63.5 -1t-31.5 -2v-530q9 -1 31.5 -2
t63.5 -1zM1243 616l-53.5 -62.5l-64.5 -81l-70 -94l-70.5 -100t-65.5 -100.5t-56 -95h390v-83h-503v65q21 40 49.5 88l61 98l67.5 101l69.5 98l67 88t59.5 72h-356v83h475v-77zM873 885l39 44l97 -88l97 88l39 -44l-136 -143z" />
    <glyph glyph-name="uni01C5" unicode="&#x1c5;" horiz-adv-x="1188" 
d="M655 347q0 -90 -28 -156.5t-79 -110t-122 -65t-156 -21.5q-42 0 -92.5 3.5t-91.5 13.5v672q41 10 91.5 13.5t92.5 3.5q85 0 156 -21.5t122 -65t79 -110t28 -156.5zM278 79q138 0 206 70.5t68 197.5t-68 197.5t-206 70.5q-41 0 -63.5 -1t-31.5 -2v-530q9 -1 31.5 -2
t63.5 -1zM1142 450q-21 -23 -55.5 -65l-74 -93l-79 -107t-69.5 -107h286v-78h-397v62q24 44 59 97t73.5 105.5l75 99l63.5 78.5h-257v78h375v-70zM812 729l39 44l97 -88l97 88l39 -44l-136 -143z" />
    <glyph glyph-name="uni01C6" unicode="&#x1c6;" horiz-adv-x="1064" 
d="M416 410q-17 14 -49 27t-70 13q-40 0 -68.5 -14.5t-46.5 -40t-26 -60.5t-8 -75q0 -91 45 -140.5t120 -49.5q38 0 63.5 3.5t39.5 7.5v329zM416 760l93 16v-761q-32 -9 -82 -18t-115 -9q-60 0 -108 19t-82 54t-52.5 85.5t-18.5 113.5q0 60 15.5 110t45.5 86t73.5 56
t99.5 20q45 0 79.5 -12t51.5 -23v263zM1018 450q-21 -23 -55.5 -65l-74 -93l-79 -107t-69.5 -107h286v-78h-397v62q24 44 59 97t73.5 105.5l75 99l63.5 78.5h-257v78h375v-70zM688 729l39 44l97 -88l97 88l39 -44l-136 -143z" />
    <glyph glyph-name="uni01C7" unicode="&#x1c7;" horiz-adv-x="1018" 
d="M503 84v-84h-417v693h97v-609h320zM942 223q0 -50 -10.5 -93t-37 -75.5t-71 -51t-111.5 -18.5q-34 0 -62.5 5.5t-51.5 14t-40 18t-27 18.5l38 77q21 -15 54.5 -31.5t83.5 -16.5q72 0 105 36.5t33 125.5v461h97v-470z" />
    <glyph glyph-name="uni01C8" unicode="&#x1c8;" horiz-adv-x="776" 
d="M503 84v-84h-417v693h97v-609h320zM518 -187q-12 0 -31 3t-32 8l12 76q10 -3 23 -5t24 -2q48 0 68.5 29.5t20.5 86.5v511h93v-510q0 -100 -45.5 -148.5t-132.5 -48.5zM649 614q-25 0 -42.5 16.5t-17.5 44.5t17.5 44.5t42.5 16.5t42.5 -16.5t17.5 -44.5t-17.5 -44.5
t-42.5 -16.5z" />
    <glyph glyph-name="uni01C9" unicode="&#x1c9;" horiz-adv-x="530" 
d="M236 -10q-86 2 -122 37t-36 109v624l93 16v-625q0 -23 4 -38t13 -24t24 -13.5t37 -7.5zM272 -187q-12 0 -31 3t-32 8l12 76q10 -3 23 -5t24 -2q48 0 68.5 29.5t20.5 86.5v511h93v-510q0 -100 -45.5 -148.5t-132.5 -48.5zM403 614q-25 0 -42.5 16.5t-17.5 44.5t17.5 44.5
t42.5 16.5t42.5 -16.5t17.5 -44.5t-17.5 -44.5t-42.5 -16.5z" />
    <glyph glyph-name="uni01CA" unicode="&#x1ca;" horiz-adv-x="1227" 
d="M561 0l-50.5 83l-61.5 95.5l-68.5 100.5l-70.5 98.5l-68 89.5t-61 74v-541h-95v693h77q47 -50 100.5 -116.5l106 -137l99 -138.5t78.5 -121v513h95v-693h-81zM1151 223q0 -50 -10.5 -93t-37 -75.5t-71 -51t-111.5 -18.5q-34 0 -62.5 5.5t-51.5 14t-40 18t-27 18.5l38 77
q21 -15 54.5 -31.5t83.5 -16.5q72 0 105 36.5t33 125.5v461h97v-470z" />
    <glyph glyph-name="uni01CB" unicode="&#x1cb;" horiz-adv-x="985" 
d="M561 0l-50.5 83l-61.5 95.5l-68.5 100.5l-70.5 98.5l-68 89.5t-61 74v-541h-95v693h77q47 -50 100.5 -116.5l106 -137l99 -138.5t78.5 -121v513h95v-693h-81zM727 -187q-12 0 -31 3t-32 8l12 76q10 -3 23 -5t24 -2q48 0 68.5 29.5t20.5 86.5v511h93v-510
q0 -100 -45.5 -148.5t-132.5 -48.5zM858 614q-25 0 -42.5 16.5t-17.5 44.5t17.5 44.5t42.5 16.5t42.5 -16.5t17.5 -44.5t-17.5 -44.5t-42.5 -16.5z" />
    <glyph glyph-name="uni01CC" unicode="&#x1cc;" horiz-adv-x="831" 
d="M80 505q32 8 85 17t122 9q62 0 103 -17.5t65.5 -49t34.5 -75.5t10 -97v-292h-93v272q0 48 -6.5 82t-21.5 55t-40 30.5t-62 9.5q-15 0 -31 -1t-30.5 -2.5t-26 -3.5t-16.5 -3v-439h-93v505zM573 -187q-12 0 -31 3t-32 8l12 76q10 -3 23 -5t24 -2q48 0 68.5 29.5t20.5 86.5
v511h93v-510q0 -100 -45.5 -148.5t-132.5 -48.5zM704 614q-25 0 -42.5 16.5t-17.5 44.5t17.5 44.5t42.5 16.5t42.5 -16.5t17.5 -44.5t-17.5 -44.5t-42.5 -16.5z" />
    <glyph glyph-name="uni01CD" unicode="&#x1cd;" horiz-adv-x="663" 
d="M549 0l-32 88.5l-31 88.5h-314l-63 -177h-101l75 203.5l68.5 177.5l66.5 160.5t69 151.5h89q36 -75 69 -151.5l66.5 -160.5l68.5 -177.5l75 -203.5h-106zM458 257l-63.5 168.5t-65.5 156.5q-35 -75 -66.5 -156.5l-62.5 -168.5h258zM195 885l39 44l97 -88l97 88l39 -44
l-136 -143z" />
    <glyph glyph-name="uni01CE" unicode="&#x1ce;" horiz-adv-x="522" 
d="M256 67q33 0 58.5 1.5t42.5 5.5v155q-10 5 -32.5 8.5t-54.5 3.5q-21 0 -44.5 -3t-43 -12.5t-32.5 -26t-13 -43.5q0 -50 32 -69.5t87 -19.5zM248 533q56 0 94.5 -14.5t62 -41t33.5 -63t10 -80.5v-325l-33.5 -5.5t-48.5 -6.5t-58.5 -5.5t-62.5 -2.5q-44 0 -81 9t-64 28.5
t-42 51.5t-15 77q0 43 17.5 74t47.5 50t70 28t84 9q14 0 29 -1.5t28.5 -4l23.5 -4.5t14 -3v26q0 23 -5 45.5t-18 40t-35.5 28t-58.5 10.5q-46 0 -80.5 -6.5t-51.5 -13.5l-11 77q18 8 60 15.5t91 7.5zM125 729l39 44l97 -88l97 88l39 -44l-136 -143z" />
    <glyph glyph-name="uni01CF" unicode="&#x1cf;" horiz-adv-x="269" 
d="M86 693h97v-693h-97v693zM0 885l39 44l97 -88l97 88l39 -44l-136 -143z" />
    <glyph glyph-name="uni01D0" unicode="&#x1d0;" horiz-adv-x="253" 
d="M173 0h-93v520h93v-520zM-7 729l39 44l97 -88l97 88l39 -44l-136 -143z" />
    <glyph glyph-name="uni01D1" unicode="&#x1d1;" horiz-adv-x="778" 
d="M58 347q0 89 26.5 157t72 113.5t106 68.5t128.5 23q67 0 126.5 -23t104.5 -68.5t71.5 -113.5t26.5 -157t-26.5 -157t-71.5 -113.5t-104.5 -68.5t-126.5 -23q-68 0 -128.5 23t-106 68.5t-72 113.5t-26.5 157zM160 347q0 -63 16 -114.5t45.5 -87.5t72 -55.5t95.5 -19.5
t95 19.5t71.5 55.5t45.5 87.5t16 114.5t-16 114.5t-45.5 87.5t-71.5 55.5t-95 19.5t-95.5 -19.5t-72 -55.5t-45.5 -87.5t-16 -114.5zM253 885l39 44l97 -88l97 88l39 -44l-136 -143z" />
    </font>
</defs>
</svg>
