<?xml version="1.0" standalone="no"?>
<!DOCTYPE svg PUBLIC "-//W3C//DTD SVG 1.1//EN" "http://www.w3.org/Graphics/SVG/1.1/DTD/svg11.dtd" >
<svg xmlns="http://www.w3.org/2000/svg">
<metadata>
This is a custom SVG webfont generated by Font Squirrel.
Copyright   : vernon adams
</metadata>
<defs>
<font id="MichromaRegular" horiz-adv-x="448" >
<font-face units-per-em="2048" ascent="1638" descent="-410" />
<missing-glyph horiz-adv-x="500" />
<glyph unicode=" " />
<glyph unicode="!" d="M128 0v192h192v-192h-192zM128 1536h192l-48 -1088h-96z" />
<glyph unicode="&#x22;" horiz-adv-x="768" d="M128 1536h192l-32 -384h-128zM448 1536h192l-32 -384h-128z" />
<glyph unicode="#" horiz-adv-x="1536" d="M128 320v160h265l96 384h-297v160h336l112 448l160 -48l-100 -400h309l112 448l160 -48l-100 -400h227v-160h-266l-96 -384h298v-160h-337l-111 -448l-160 48l99 400h-309l-111 -448l-160 48l99 400h-226zM565 480h309l96 384h-309z" />
<glyph unicode="$" horiz-adv-x="2018" d="M128 1128q0 70 12.5 130t46.5 108.5t93 86.5t151.5 63.5t222.5 38.5q112 11 259 13v96h192v-96h47q144 0 252 -10.5t186 -33t129.5 -56t82 -80t42.5 -105.5t12 -131h-192q0 90 -26 141t-86 76.5t-158 32t-242 6.5h-47v-544h55q158 0 271 -13t190.5 -38.5t123.5 -63.5 t71 -86.5t32.5 -108.5t7.5 -130t-12.5 -131.5t-44.5 -112.5t-87 -91t-140 -68t-205 -42q-113 -14 -262 -15v-92h-192v92h-81q-144 0 -252 11t-186 33.5t-129 57t-81.5 81t-42.5 106t-12 131.5h192q0 -90 26 -141t86 -76.5t157.5 -32t241.5 -6.5h81v576h-17q-176 0 -301.5 13 t-210.5 37.5t-136 61t-77.5 83.5t-34.5 104.5t-8 124.5zM320 1128q0 -50 7 -89t28.5 -68.5t60.5 -49.5t103 -33t156.5 -18.5t220.5 -5.5h17v544q-161 -2 -269 -14q-124 -13 -196 -45t-100 -86t-28 -135zM1105 128q157 1 262 16q111 16 177 51t93 91.5t27 137.5t-18.5 135 t-73 86t-153.5 45.5t-259 13.5h-55v-576z" />
<glyph unicode="%" horiz-adv-x="1023" d="M64 0h192l704 1536h-192z" />
<glyph unicode="&#x26;" horiz-adv-x="2432" d="M128 512q0 96 21.5 166.5t55.5 120.5t75 81t80 49t71.5 24.5t48.5 6.5q-36 24 -65.5 49t-50.5 55t-32.5 67t-11.5 85q0 96 31.5 159.5t85 102.5t124 58t148.5 26t159 6.5t156 -0.5q160 0 279.5 -4.5t204.5 -19.5t140 -44t87 -79t44.5 -123.5t12.5 -177.5h-192 q0 72 -7 121.5t-28.5 81.5t-60.5 49t-103 25t-156.5 9.5t-220.5 1.5q-144 0 -242 -3t-158 -21t-86 -57t-26 -111q0 -26 8 -50.5t26.5 -48.5t49 -47t76.5 -46l1632 -832l-64 -160l-1600 801q-72 0 -131 -18t-101 -56.5t-65 -99.5t-23 -147q0 -80 12.5 -135t44.5 -90.5 t87 -54.5t140.5 -28t204.5 -10.5t279 -1.5q128 0 227.5 1.5t174 10t126 27.5t83.5 54.5t46.5 90.5t14.5 136v256h192v-64q0 -154 -10.5 -266t-42.5 -190t-91 -126.5t-155 -75.5t-234.5 -36.5t-330.5 -9.5q-176 0 -315.5 2.5t-246 16.5t-182.5 45t-124 88t-70 144.5 t-22 215.5z" />
<glyph unicode="'" d="M128 1536h192l-32 -384h-128z" />
<glyph unicode="(" horiz-adv-x="768" d="M128 768q0 96 2.5 195t16.5 191.5t45 173.5t88 141.5t144.5 95.5t215.5 35v-160q-81 0 -136 -18.5t-90.5 -56t-54.5 -93.5t-27.5 -130.5t-10 -168t-1.5 -205.5t1.5 -205.5t10 -168t27.5 -130.5t54.5 -93.5t90.5 -56t136 -18.5v-160q-128 0 -215.5 35t-144.5 95.5 t-88 141.5t-45 173.5t-16.5 191.5t-2.5 195z" />
<glyph unicode=")" horiz-adv-x="768" d="M128 -64v160q80 0 135.5 18.5t91 56t54.5 93.5t27.5 130.5t10 168t1.5 205.5t-1.5 205.5t-10 168t-27.5 130.5t-54.5 93.5t-91 56t-135.5 18.5v160q128 0 215.5 -35t144.5 -95.5t88 -141.5t45 -173.5t16.5 -191.5t2.5 -195t-2.5 -195t-16.5 -191.5t-45 -173.5t-88 -141.5 t-144.5 -95.5t-215.5 -35z" />
<glyph unicode="*" horiz-adv-x="1415" d="M128 1072l100 178l432 -258l-48 544h192l-48 -544l431 258l100 -178l-499 -176l364 -401l-156 -111l-288 450l-288 -450l-156 111l364 401z" />
<glyph unicode="+" horiz-adv-x="1344" d="M128 800v160h448v448h192v-448h448v-160h-448v-480h-192v480h-448z" />
<glyph unicode="," d="M64 -256l64 384h192l-128 -384h-128z" />
<glyph unicode="-" horiz-adv-x="1024" d="M128 512v160h768v-160h-768z" />
<glyph unicode="." d="M128 0v192h192v-192h-192z" />
<glyph unicode="/" horiz-adv-x="1023" d="M64 0l704 1536h192l-704 -1536h-192z" />
<glyph unicode="0" horiz-adv-x="2048" d="M129 768q0 136 3 248t22.5 201t62 155t120.5 109.5t198.5 65t296.5 21.5h385q176 0 296.5 -21.5t198.5 -65t120 -109.5t61.5 -155t23 -201t3.5 -248t-3.5 -248t-23 -201t-61.5 -155t-120 -109.5t-198.5 -65t-296.5 -21.5h-385q-176 0 -296.5 21.5t-198.5 65t-120.5 109.5 t-62 155t-22.5 201t-3 248zM321 768q0 -144 2.5 -247.5t16.5 -174.5t44.5 -114t87.5 -66t144.5 -30.5t215.5 -7.5h385q128 0 215 7.5t144 30.5t88 66t45 114t16.5 174.5t2.5 247.5t-2.5 247.5t-16.5 174.5t-45 114t-87.5 66t-144 30.5t-215.5 7.5h-385q-128 0 -215.5 -7.5 t-144.5 -30.5t-88 -66t-45 -114t-16 -174.5t-2 -247.5z" />
<glyph unicode="1" horiz-adv-x="992" d="M128 1120l480 416h256v-1536h-192v1376l-448 -384z" />
<glyph unicode="2" horiz-adv-x="1984" d="M128 0v192q0 60 3 119.5t13.5 114t31 102.5t56 84.5t88.5 60.5t128 31l1024 96q48 4 84 14t59.5 38.5t35.5 83.5t12 151q0 80 -12 135t-40 91t-75.5 55t-118.5 28t-168 10.5t-225 1.5q-176 0 -296.5 -6.5t-199 -23.5t-120.5 -46t-61.5 -75.5t-23 -111.5t-3.5 -153h-192 q0 144 26.5 242.5t78 162.5t127.5 99t175.5 51t222 18.5t266.5 2.5t261.5 -4.5t210 -20.5t160.5 -47t112.5 -84.5t66 -132.5t21.5 -191q0 -96 -14 -174.5t-50 -136.5t-98 -93t-158 -44l-1024 -96q-73 -7 -112 -27t-57 -63.5t-20.5 -114.5t-2.5 -179h1504v-160h-1696z" />
<glyph unicode="3" horiz-adv-x="1984" d="M128 480h192q0 -76 4 -131.5t23 -94.5t61 -63.5t120.5 -38.5t199 -19t296.5 -5q128 0 225 1.5t168 10.5t118.5 28t75.5 55t40 91t12 135q0 84 -12 134.5t-35.5 77.5t-59.5 35t-84 8h-704v160h704q48 0 84 8t59.5 31.5t35.5 67.5t12 116q0 80 -12 135t-40 91t-75.5 55 t-118.5 28t-168 10.5t-225 1.5q-176 0 -296.5 -4.5t-199 -17t-120.5 -34.5t-61.5 -57.5t-23 -86.5t-3.5 -120h-192q0 121 26.5 204t78 136.5t127.5 82t175.5 41t222 14.5t266.5 2t261.5 -4.5t210 -20.5t160.5 -47t112.5 -84.5t66 -132.5t21.5 -191q0 -72 -9.5 -122 t-29 -84.5t-49.5 -57t-72 -40.5q42 -18 72 -46t49.5 -68.5t29 -95t9.5 -126.5q0 -112 -21.5 -191t-66 -132.5t-112.5 -84.5t-160.5 -47t-210 -20.5t-261.5 -4.5t-266.5 2t-222 16t-175.5 44.5t-127.5 87.5t-78 145t-26.5 217z" />
<glyph unicode="4" horiz-adv-x="2048" d="M128 320v192l1280 1024h256v-1056h256v-160h-256v-320h-192v320h-1344zM320 480h1152v928z" />
<glyph unicode="5" horiz-adv-x="1984" d="M128 480h192q0 -76 3.5 -131.5t23 -94.5t61.5 -63.5t120.5 -38.5t199 -19t296.5 -5q128 0 225 2t168.5 13t118.5 34.5t75.5 66.5t40.5 108.5t12 160.5q0 128 -15 204t-57 115.5t-117 51.5t-195 12h-512q-132 0 -214 -11.5t-130 -32.5t-70 -50.5t-34 -65.5h-192v800h1664 v-160h-1472v-480q1 2 8.5 14.5t26 30.5t50 38t81 37t119 28.5t163.5 11.5h512q128 0 220.5 -13.5t156.5 -42t103 -72.5t60.5 -104.5t28.5 -138t7 -173.5q0 -125 -21.5 -214.5t-66 -150t-112.5 -96t-160.5 -54t-210 -24t-261.5 -5.5t-266.5 2t-222 16t-175.5 44.5 t-127.5 87.5t-78 145t-26.5 217z" />
<glyph unicode="6" horiz-adv-x="1984" d="M128 768q0 144 4 259.5t27 204t73 152.5t142.5 104.5t235 60t350.5 19.5q176 0 306 -13t222.5 -39t151.5 -64t92.5 -88t46 -111t12.5 -133h-159q0 40 -5.5 77t-26.5 69t-64 58t-117.5 45t-186.5 29t-272 10q-155 0 -262.5 -5t-178.5 -23.5t-111 -55.5t-59.5 -101 t-24 -159.5t-4.5 -231.5q78 47 202 71.5t310 24.5h321q216 0 353 -30t214.5 -90t106.5 -150t29 -210t-29 -210t-106.5 -150t-214.5 -90t-353 -30h-321q-176 0 -296.5 21.5t-199 65t-120.5 109.5t-61.5 155t-23 201t-3.5 248zM320 512q0 -80 9 -139.5t30.5 -102t59 -70.5 t94 -44t135.5 -22t184 -6h321q112 0 193.5 6t138 20t92 38t55 59.5t26 84t6.5 112.5t-7 112.5t-26.5 84t-54.5 59.5t-92 38t-138 20t-193 6h-321q-105 0 -184 -2.5t-135.5 -11.5t-94 -26t-59 -45.5t-30.5 -70.5t-9 -100z" />
<glyph unicode="7" horiz-adv-x="1984" d="M128 1376v160h1728v-192l-1152 -1344h-256l1184 1376h-1504z" />
<glyph unicode="8" horiz-adv-x="1984" d="M128 432q0 65 11 122.5t40 106.5t78.5 88t126.5 67q-67 25 -110.5 59.5t-68.5 76.5t-35 92.5t-10 107.5q0 102 29 179.5t106.5 130t214.5 79.5t353 27h258q216 0 353 -27t214.5 -79.5t106.5 -130t29 -179.5q0 -57 -10 -107.5t-35.5 -92.5t-68.5 -76.5t-110 -59.5 q76 -28 126 -67t78.5 -88t40 -106.5t11.5 -122.5q0 -75 -12 -138.5t-42 -115t-81.5 -91t-129.5 -66t-186.5 -40t-252.5 -13.5h-321q-216 0 -353 30.5t-214.5 89.5t-106.5 145.5t-29 198.5zM320 432q0 -58 7 -103t26.5 -79t54.5 -57t92 -37.5t138 -21t193 -6.5h321 q112 0 193.5 6.5t138 21t92 37.5t55 57t26.5 79t7 103q0 56 -6.5 100.5t-26 78t-55 57.5t-92.5 39t-138.5 22t-193.5 7h-321q-112 0 -193.5 -7t-138 -22t-92 -39t-55 -57.5t-26 -78t-6.5 -100.5zM352 1152q0 -52 7 -91t26.5 -67.5t54.5 -47.5t92 -30t138 -15.5t193 -4.5h289 q157 0 251.5 11.5t145 40.5t67 78.5t16.5 125.5q0 50 -6.5 88.5t-26 67t-55 47.5t-92.5 31t-138.5 17t-193.5 5h-257q-112 0 -193.5 -5t-138 -17t-92 -31t-55 -47.5t-26 -67t-6.5 -88.5z" />
<glyph unicode="9" horiz-adv-x="1984" d="M128 1088q0 120 29 210t106.5 150t214.5 90t353 30h321q176 0 296.5 -21.5t199 -65t120.5 -109.5t61.5 -155t23 -201t3.5 -248q0 -144 -4 -259.5t-27 -204t-73 -152.5t-142.5 -104.5t-235 -60t-350.5 -19.5q-176 0 -306 13t-222.5 39t-151.5 64t-92.5 88t-46 111 t-12.5 133h159q0 -40 6 -77t26.5 -69t63.5 -58t117.5 -45t186.5 -29t272 -10q155 0 262.5 5t178.5 23.5t111 55.5t59.5 101t24 159.5t4.5 231.5q-78 -47 -202 -71.5t-310 -24.5h-321q-216 0 -353 30t-214.5 90t-106.5 150t-29 210zM320 1088q0 -64 7 -112.5t26.5 -84 t54.5 -59.5t92 -38t138 -20t193 -6h321q157 0 257 7t156.5 33t77.5 77t21 139q0 120 -21 195t-77.5 117t-156.5 57t-257 15h-321q-112 0 -193.5 -6t-138 -20t-92 -38t-55 -59.5t-26 -84t-6.5 -112.5z" />
<glyph unicode=":" d="M128 192v192h192v-192h-192zM128 768v192h192v-192h-192z" />
<glyph unicode=";" d="M64 128l64 384h192l-128 -384h-128zM128 768v192h192v-192h-192z" />
<glyph unicode="&#x3c;" horiz-adv-x="1152" d="M128 736v192l896 544v-256l-752 -384l752 -384v-256z" />
<glyph unicode="=" horiz-adv-x="1472" d="M128 320v160h1216v-160h-1216zM128 864v160h1216v-160h-1216z" />
<glyph unicode="&#x3e;" horiz-adv-x="1152" d="M128 192v256l752 384l-752 384v256l896 -544v-192z" />
<glyph unicode="?" horiz-adv-x="1856" d="M128 1122q0 112 26.5 188t78 125.5t127.5 76.5t175.5 39.5t222 14.5t266.5 2q112 0 208 -4t174 -18t138 -41t101 -73t62 -114.5t21 -164.5q0 -89 -25 -165.5t-79 -132.5t-139 -87.5t-205 -31.5q-96 0 -162 -8.5t-108.5 -28t-65.5 -51t-33.5 -77.5t-12.5 -108t-2 -142 h-192v66q0 60 2.5 121.5t16.5 118t45 105.5t88 85.5t144.5 57.5t215.5 21q72 0 131 8t100.5 34.5t64.5 77t23 136.5q0 94 -26 146t-85.5 76.5t-157.5 29t-242 4.5q-176 0 -296.5 -4.5t-199 -16t-120.5 -31.5t-61.5 -52t-23 -76.5t-3.5 -105.5h-192zM704 0v192h192v-192h-192 z" />
<glyph unicode="@" horiz-adv-x="2240" d="M128 576q0 160 13.5 281.5t52.5 210.5t110 148t184.5 94.5t276.5 50.5t387 15q192 0 338 -14t252.5 -44t177.5 -78t113.5 -115.5t78.5 -644.5q0 -96 -12 -163t-47 -109t-97.5 -61t-164.5 -19q-73 0 -117 19.5t-68 48t-31.5 62t-7.5 62.5q-25 -54 -81 -96 q-24 -18 -57.5 -35.5t-79 -31t-103 -21.5t-129.5 -8q-127 0 -221.5 9.5t-161.5 30.5t-110 55t-68 84t-34.5 116.5t-9.5 152.5t9.5 152.5t34.5 116.5t68 84t110 55t161.5 30.5t221.5 9.5q62 0 111.5 -7t88.5 -18t68 -25.5t50 -29.5q48 -35 69 -80v128h192v-512q0 -62 3 -99.5 t12.5 -58t28.5 -27.5t51 -7q42 0 67.5 7t39 27.5t18 58t4.5 99.5v288q0 96 -12.5 166.5t-44.5 120.5t-87.5 81t-140.5 49t-204 24.5t-279 6.5q-176 0 -306 -5t-222.5 -25.5t-151.5 -61.5t-92.5 -112t-46 -177.5t-12.5 -258.5q0 -144 13 -247.5t46.5 -174.5t92.5 -114 t151 -66t222 -30.5t945 -7.5v-160h-639q-224 0 -387 21.5t-276.5 65t-184.5 109.5t-110 155t-52.5 201t-13.5 248zM704 576q0 -64 4 -110t18.5 -78t41.5 -52t72.5 -30.5t113.5 -14t163 -3.5q107 0 181 7.5t119.5 36t66 85.5t20.5 156q0 101 -20.5 159t-66 87.5t-119.5 37 t-181 7.5q-95 0 -163 -3.5t-113.5 -14t-72.5 -30.5t-41.5 -52t-18.5 -78t-4 -110z" />
<glyph unicode="A" horiz-adv-x="2176" d="M64 0l896 1536h256l896 -1536h-224l-192 352h-1216l-192 -352h-224zM576 512h1024l-512 896z" />
<glyph unicode="B" horiz-adv-x="2112" d="M192 0v1536h1281q144 0 232 -23.5t135.5 -69t63.5 -113.5t16 -156q0 -64 -11 -113t-29 -85t-41 -60.5t-47 -40.5q-56 -38 -128 -43q90 -5 160 -44q30 -17 58.5 -42.5t51 -63t36.5 -88t14 -116.5q0 -80 -7.5 -146.5t-30.5 -119.5t-66 -93t-114.5 -66.5t-175 -39.5 t-247.5 -13h-1151zM384 160h895q112 0 194 3.5t139 15t92 33t54.5 57t26.5 86.5t7 123q0 56 -7 97.5t-26.5 70t-54.5 46t-92 27.5t-139 13.5t-194 3.5h-895v-576zM384 896h895q98 0 169 4t121 15t81 30.5t48.5 50.5t23.5 74.5t6 103.5q0 64 -14 104t-50 61.5t-97.5 29 t-157.5 7.5h-1025v-480z" />
<glyph unicode="C" horiz-adv-x="2111" d="M128 768q0 136 3 248t22.5 201t62 155t120.5 109.5t198.5 65t296.5 21.5h449q144 0 252 -13.5t186 -41t129 -69.5t81.5 -99t42.5 -129t12 -160h-192q0 120 -26 190t-86 106t-157.5 46t-241.5 10h-449q-128 0 -215.5 -7.5t-144.5 -30.5t-88 -66t-45 -114t-16 -174.5 t-2 -247.5t2.5 -247.5t16.5 -174.5t44.5 -114t87.5 -66t144.5 -30.5t215.5 -7.5h449q112 0 193 6t138 22t92 44t54.5 70.5t26.5 102t7 139.5h192q0 -96 -12 -173.5t-42.5 -138t-81.5 -104.5t-129 -72.5t-186 -42t-252 -13.5h-449q-176 0 -296.5 21.5t-198.5 65t-120.5 109.5 t-62 155t-22.5 201t-3 248z" />
<glyph unicode="D" horiz-adv-x="2176" d="M192 0v1536h1151q176 0 296.5 -20.5t199 -62.5t121 -105t62 -148.5t23 -193t3.5 -238.5t-3.5 -238.5t-23 -193t-62 -148.5t-121 -105t-199 -62.5t-296.5 -20.5h-1151zM384 160h959q127 0 215 7t145 28.5t88 62.5t45.5 108.5t17 166t2.5 235.5t-2.5 235.5t-17 166 t-45.5 108.5t-88 62.5t-144.5 28.5t-215.5 7h-959v-1216z" />
<glyph unicode="E" horiz-adv-x="1792" d="M192 0v1536h1536v-160h-1344v-512h1280v-160h-1280v-544h1344v-160h-1536z" />
<glyph unicode="F" horiz-adv-x="1728" d="M192 0v1536h1472v-160h-1280v-512h1216v-160h-1216v-704h-192z" />
<glyph unicode="G" horiz-adv-x="2177" d="M128 768q0 136 3 248t22.5 201t62 155t120.5 109.5t198.5 65t296.5 21.5h514q144 0 252 -13.5t186 -41t129.5 -69.5t82 -99t42.5 -129t12 -160h-192q0 120 -26 190t-86 106t-158 46t-242 10h-514q-128 0 -215.5 -7.5t-144.5 -30.5t-88 -66t-45 -114t-16 -174.5t-2 -247.5 t2.5 -247.5t16.5 -174.5t44.5 -114t87.5 -66t144.5 -30.5t215.5 -7.5h515q112 0 193 6t138 22t92 44t54.5 70.5t26.5 102t7 139.5v96h-770v160h962v-256q0 -96 -12 -173.5t-42.5 -138t-81.5 -104.5t-129 -72.5t-186 -42t-252 -13.5h-515q-176 0 -296.5 21.5t-198.5 65 t-120.5 109.5t-62 155t-22.5 201t-3 248z" />
<glyph unicode="H" horiz-adv-x="2176" d="M192 0v1536h192v-672h1408v672h192v-1536h-192v704h-1408v-704h-192z" />
<glyph unicode="I" horiz-adv-x="576" d="M192 0v1536h192v-1536h-192z" />
<glyph unicode="J" horiz-adv-x="1715" d="M128 512v64h192v-64q0 -120 13 -190.5t43 -107.5t79 -47.5t121 -10.5h448q96 0 158 17.5t98 53.5t50 91t14 130v1088h192v-1088q0 -120 -26 -205t-86 -139t-158 -79t-242 -25h-448q-144 0 -232 26t-136 86t-64 158t-16 242z" />
<glyph unicode="K" horiz-adv-x="2016" d="M192 0v1536h192v-672h256l992 672h288l-1088 -752l1120 -784h-288l-1024 704h-256v-704h-192z" />
<glyph unicode="L" horiz-adv-x="1664" d="M192 0v1536h192v-1376h1216v-160h-1408z" />
<glyph unicode="M" horiz-adv-x="2800" d="M192 0v1536h320l895 -1344l895 1344h306v-1536h-192v1387l-912 -1387h-194l-926 1408v-1408h-192z" />
<glyph unicode="N" horiz-adv-x="2321" d="M192 0v1536h337l1408 -1344v1344h192v-1536h-256l-1489 1376v-1376h-192z" />
<glyph unicode="O" horiz-adv-x="2240" d="M128 768q0 136 3 248t22.5 201t62 155t120.5 109.5t198.5 65t296.5 21.5h578q176 0 296.5 -21.5t198.5 -65t120 -109.5t61.5 -155t23 -201t3.5 -248t-3.5 -248t-23 -201t-61.5 -155t-120 -109.5t-198.5 -65t-296.5 -21.5h-578q-176 0 -296.5 21.5t-198.5 65t-120.5 109.5 t-62 155t-22.5 201t-3 248zM320 768q0 -144 2.5 -247.5t16.5 -174.5t44.5 -114t87.5 -66t144.5 -30.5t215.5 -7.5h578q127 0 214.5 7.5t144.5 30.5t88 66t45 114t16.5 174.5t2.5 247.5t-2.5 247.5t-16.5 174.5t-45 114t-87.5 66t-144 30.5t-215.5 7.5h-578 q-128 0 -215.5 -7.5t-144.5 -30.5t-88 -66t-45 -114t-16 -174.5t-2 -247.5z" />
<glyph unicode="P" horiz-adv-x="1984" d="M192 0v1536h1154q143 0 241.5 -12.5t162.5 -37.5t98.5 -62t50.5 -87t18.5 -112t2.5 -137q0 -78 -3.5 -144t-23 -119.5t-62 -94t-121 -67.5t-199 -41t-296.5 -14h-831v-608h-192zM384 768h831q128 0 215.5 4.5t144.5 16.5t88 34t45.5 58t17 86.5t2.5 120.5q0 65 -2.5 112 t-17 79t-45.5 51t-88 29.5t-144.5 13.5t-215.5 3h-831v-608z" />
<glyph unicode="Q" horiz-adv-x="2352" d="M129 768q0 -136 3 -248t22.5 -201t62 -155t120.5 -109.5t198.5 -65t296.5 -21.5h578q176 0 296.5 21.5t198.5 65t120 109.5q2 3 3 6l116 -74l80 128l-139 89q1 3 1 6q20 89 23.5 201t3.5 248t-3.5 248t-23 201t-61.5 155t-120 109.5t-198.5 65t-296.5 21.5h-578 q-176 0 -296.5 -21.5t-198.5 -65t-120.5 -109.5t-62 -155t-22.5 -201t-3 -248zM321 768q0 144 2 247.5t16 174.5t45 114t88 66t144.5 30.5t215.5 7.5h578q128 0 215.5 -7.5t144 -30.5t87.5 -66t45 -114t16.5 -174.5t2.5 -247.5t-3 -248q-1 -52 -5 -96l-585 376l-81 -129 l630 -404q-9 -20 -20 -35q-31 -43 -88 -66t-144.5 -30.5t-214.5 -7.5h-578q-128 0 -215.5 7.5t-144.5 30.5t-87.5 66t-44.5 114t-16.5 174.5t-2.5 247.5z" />
<glyph unicode="R" horiz-adv-x="2112" d="M192 0v1536h1087q176 0 296.5 -12.5t199 -37.5t121 -62t62 -87t23 -112t3.5 -137q0 -96 -13.5 -168.5t-45.5 -123.5t-85 -81.5t-133 -42.5q80 -12 128 -42t74 -78t34.5 -114t8.5 -150v-288h-192v288q0 70 -2.5 120.5t-17 86.5t-45.5 58t-88 34t-144.5 16.5t-215.5 4.5 h-863v-608h-192zM384 768h895q128 0 215.5 4.5t144.5 16.5t88 34t45.5 58t17 86.5t2.5 120.5q0 65 -2.5 112t-17 79t-45.5 51t-88 29.5t-144.5 13.5t-215.5 3h-895v-608z" />
<glyph unicode="S" horiz-adv-x="1984" d="M128 1128q0 70 12.5 130t46.5 108.5t93 86.5t151.5 63.5t222.5 38.5t306 13h192q144 0 252 -10.5t186 -33t129.5 -56t82 -80t42.5 -105.5t12 -131h-192q0 90 -26 141t-86 76.5t-158 32t-242 6.5h-192q-192 0 -316 -13.5t-196 -45.5t-100 -86t-28 -135q0 -50 7 -89 t28.5 -68.5t60.5 -49.5t103 -33t156.5 -18.5t220.5 -5.5h264q158 0 271 -13t190.5 -38.5t123.5 -63.5t71 -86.5t32.5 -108.5t7.5 -130t-12.5 -131.5t-44.5 -112.5t-87 -91t-140 -68t-204.5 -42.5t-279.5 -14.5h-256q-144 0 -252 11t-186 33.5t-129 57t-81.5 81t-42.5 106 t-12 131.5h192q0 -90 26 -141t86 -76.5t157.5 -32t241.5 -6.5h256q168 0 279 16t177 51t93 91.5t27 137.5t-18.5 135t-73 86t-153.5 45.5t-259 13.5h-264q-176 0 -301.5 13t-210.5 37.5t-136 61t-77.5 83.5t-34.5 104.5t-8 124.5z" />
<glyph unicode="T" horiz-adv-x="1984" d="M128 1376v160h1728v-160h-768v-1376h-192v1376h-768z" />
<glyph unicode="U" horiz-adv-x="2113" d="M129 768v768h192v-768q0 -144 2.5 -247.5t16.5 -174.5t44.5 -114t87.5 -66t144.5 -30.5t215.5 -7.5h450q127 0 215 7.5t144.5 30.5t87.5 66t45.5 114t16.5 174.5t2 247.5l-1 768h193v-768q0 -136 -3.5 -248t-23 -201t-61.5 -155t-120 -109.5t-198.5 -65t-296.5 -21.5 h-450q-176 0 -296.5 21.5t-198.5 65t-120.5 109.5t-62 155t-22.5 201t-3 248z" />
<glyph unicode="V" horiz-adv-x="2048" d="M64 1536h224l736 -1408l736 1408h224l-832 -1536h-256z" />
<glyph unicode="W" horiz-adv-x="3328" d="M64 1536h224l672 -1376l624 1376h224l624 -1376l608 1376h224l-704 -1536h-256l-608 1344l-608 -1344h-256z" />
<glyph unicode="X" horiz-adv-x="2176" d="M64 0l873 810l-809 726h272l670 -602l649 602h272l-782 -726l903 -810h-272l-765 686l-739 -686h-272z" />
<glyph unicode="Y" horiz-adv-x="2200" d="M128 1536h256l704 -752l704 752h256l-864 -896v-640h-192v640z" />
<glyph unicode="Z" horiz-adv-x="2046" d="M128 0v160l1486 1216h-1422v160h1696v-160l-1494 -1216h1526v-160h-1792z" />
<glyph unicode="[" horiz-adv-x="832" d="M128 0v1536h576v-160h-384v-1216h384v-160h-576z" />
<glyph unicode="\" horiz-adv-x="1023" d="M64 1536h192l704 -1536h-192z" />
<glyph unicode="]" horiz-adv-x="832" d="M128 0v160h384v1216h-384v160h576v-1536h-576z" />
<glyph unicode="^" horiz-adv-x="1088" d="M64 992l384 544h192l384 -544l-128 -96l-352 512l-352 -512z" />
<glyph unicode="_" horiz-adv-x="1088" d="M0 0h1088v-160h-1088v160z" />
<glyph unicode="`" horiz-adv-x="960" d="M128 1664l128 192l576 -480l-64 -96z" />
<glyph unicode="a" horiz-adv-x="1595" d="M123 293q0 87 20.5 147.5t60 101.5t95.5 64t127.5 35t156.5 15t181 3q137 0 229 -11.5t150.5 -29t88.5 -37.5t43 -37q0 112 -9.5 191t-31 132t-55.5 84.5t-83.5 47.5t-115.5 20.5t-151 4.5q-132 0 -219 -6.5t-138 -25.5t-72 -52.5t-21 -87.5h-192q0 91 32.5 154 t108 102.5t198.5 57.5t303 18q176 0 298 -29t197.5 -102t109 -196.5t33.5 -312.5v-544h-192v158q-3 -12 -45 -60q-30 -36 -80 -63.5t-133.5 -43t-219.5 -15.5q-181 0 -309 18.5t-209 57t-118.5 98.5t-37.5 143zM315 320q0 -60 17.5 -97.5t71.5 -58.5t155.5 -28.5t269.5 -7.5 q127 0 212.5 12t137.5 36t74 60t22 84t-25.5 81.5t-85 54.5t-157.5 30.5t-242 9.5t-232.5 -5t-136.5 -23t-64.5 -53t-16.5 -95z" />
<glyph unicode="b" horiz-adv-x="1632" d="M128 0v1536h192v-493q13 21 43.5 45.5t89 46t150.5 35.5t229 14q192 0 326 -29t218 -99t122 -187.5t38 -294.5q0 -174 -38 -289t-122 -183t-218 -96t-326 -28q-138 0 -229.5 18.5t-149.5 40t-88 68t-45 72.5v-177h-192zM320 571q0 -102 11.5 -174.5t36.5 -121.5 t64.5 -78.5t96.5 -44.5t132 -19.5t171 -4.5q112 0 193.5 7t138.5 25t92.5 50t55 81.5t26 119t6.5 163.5t-6.5 164t-26 119.5t-55 82t-92.5 51t-138.5 25.5t-193.5 7q-96 0 -171 -4.5t-132 -20.5t-96.5 -46t-64.5 -80t-36.5 -124t-11.5 -177z" />
<glyph unicode="c" horiz-adv-x="1569" d="M96 574q0 120 12 212t42.5 160t82 113.5t130 73.5t186.5 40t252 12q192 0 316 -23.5t196 -72t100 -123t28 -177.5h-192q0 37 -2 69t-14.5 58t-39.5 46.5t-77 34.5t-126.5 21t-188.5 7q-128 0 -215.5 -9t-144.5 -29.5t-88 -55t-45 -84.5t-16.5 -117.5t-2.5 -155.5 q0 -86 2.5 -152.5t16.5 -116t45 -83.5t88 -55t144.5 -30t215.5 -9q112 0 188.5 8t126.5 23t77 37t39.5 50.5t14.5 63t2 74.5h192q0 -105 -28 -182t-100 -126.5t-196 -73.5t-316 -24q-144 0 -252 12t-186.5 39.5t-130 72.5t-82 111t-42.5 155.5t-12 205.5z" />
<glyph unicode="d" horiz-adv-x="1632" d="M96 574q0 180 38 298t122 187t218 97t326 28q136 0 228 -14t150.5 -35t89 -45.5t44.5 -45.5v492h192v-1536h-192v171l-48 -57q-42 -41 -93 -66t-143 -47.5t-228 -22.5q-192 0 -326 28t-218 96t-122 183t-38 289zM288 574q0 -94 6.5 -163.5t26 -119t55 -81.5t92.5 -50 t138.5 -25t193.5 -7q96 0 171 4.5t132 19.5t96.5 44.5t64.5 78.5t36.5 121.5t11.5 174.5q0 106 -11.5 180.5t-36.5 125t-64.5 79.5t-96.5 44.5t-132 19.5t-171 4q-112 0 -193.5 -7t-138.5 -25t-92.5 -50t-55 -82t-26 -120.5t-6.5 -165.5z" />
<glyph unicode="e" horiz-adv-x="1568" d="M96 544q0 189 38 312.5t122 196.5t218 102t326 29q137 0 237.5 -20t172 -58t116 -92t70 -113.5t35 -139.5t9.5 -169l-16 -64h-1136q0 -132 26 -216.5t86 -123.5t158 -49.5t242 -10.5q132 0 218.5 7.5t137.5 28.5t71.5 58.5t20.5 97.5h192q0 -93 -32.5 -158.5t-107.5 -106 t-197.5 -59t-302.5 -18.5q-192 0 -326 26.5t-218 91.5t-122 174t-38 274zM288 656h960q0 117 -25 183.5t-79 109.5t-139 59t-205 16q-96 0 -171.5 -4t-132 -17.5t-96.5 -39t-64.5 -60t-36 -97t-11.5 -150.5z" />
<glyph unicode="f" horiz-adv-x="1056" d="M128 1006v146h192v10q0 117 26 195t86 125t158.5 66.5t242.5 19.5h223v-160h-224q-91 0 -152 -4t-98.5 -27t-53.5 -73t-16 -142v-10h544v-146h-544v-1006h-192v1006h-192z" />
<glyph unicode="g" horiz-adv-x="1632" d="M96 574q0 180 38 298t122 187t218 97t326 28q136 0 228 -14t150.5 -35t89 -45.5t44.5 -44.5v107h192v-992q0 -168 -38 -279t-122 -179.5t-218 -95.5t-326 -27q-180 0 -302.5 16t-197.5 50.5t-107.5 89t-32.5 132.5h192q0 -39 20.5 -64t71.5 -39t137.5 -19.5t218.5 -5.5 q144 0 242 10.5t158 49.5t86 118t26 211q-14 -24 -44.5 -52t-89 -52t-150.5 -40t-228 -16q-192 0 -326 28.5t-218 97.5t-122 186t-38 294zM288 574q0 -94 6.5 -163.5t26 -119t55 -81.5t92.5 -50t138.5 -25t193.5 -7q96 0 171 4.5t132 20t96.5 45t64.5 79t36.5 123 t11.5 177.5t-11.5 178t-36.5 123.5t-64.5 78.5t-96.5 44t-132 19t-171 4q-112 0 -193.5 -7t-138.5 -25t-92.5 -50t-55 -82t-26 -120.5t-6.5 -165.5z" />
<glyph unicode="h" horiz-adv-x="1601" d="M128 0v1536h192v-566q20 47 57 81t85.5 58t104.5 38.5t113.5 22.5t113 11t102.5 3q128 0 220.5 -15.5t157 -46t103.5 -75.5t60.5 -104.5t28.5 -133t7 -159.5l-1 -650h-192v650q0 104 -16 175.5t-64 115.5t-136 63.5t-232 19.5q-156 0 -255.5 -22.5t-156.5 -63 t-78.5 -97.5t-21.5 -127v-714h-192z" />
<glyph unicode="i" horiz-adv-x="576" d="M192 0v1152h192v-1152h-192zM192 1344v192h192v-192h-192z" />
<glyph unicode="j" horiz-adv-x="672" d="M128 -224q48 0 79 7t49 25t25 49t7 79v1216h192v-1216q0 -74 -10 -133t-46 -100.5t-106 -64t-190 -22.5v160zM288 1344v192h192v-192h-192z" />
<glyph unicode="k" horiz-adv-x="1408" d="M128 0v1536h192v-840h64l704 456h288l-816 -536l848 -616h-288l-736 552h-64v-552h-192z" />
<glyph unicode="l" horiz-adv-x="576" d="M192 0v1536h192v-1536h-192z" />
<glyph unicode="m" horiz-adv-x="2496" d="M128 0v1152h192v-182q1 3 9 20t28.5 40.5t56 50.5t92 50t136.5 38t190 15q108 0 187.5 -13.5t136 -40t92 -66t56.5 -90.5q17 27 53 63t100.5 69t161.5 55.5t237 22.5q115 0 197.5 -15.5t139.5 -46t91.5 -75.5t53 -104.5t24.5 -133t6 -159.5v-650h-192v650 q0 104 -13.5 175.5t-55 115.5t-117 63.5t-198.5 19.5q-135 0 -222 -22.5t-137 -63t-69.5 -97.5t-19.5 -127v-714h-192v650q0 104 -13.5 175.5t-55 115.5t-117 63.5t-198.5 19.5q-135 0 -222 -22.5t-137 -63t-69.5 -97.5t-19.5 -127v-714h-192z" />
<glyph unicode="n" horiz-adv-x="1601" d="M128 0v1152h192v-192q21 49 60 84.5t88 60.5t106 40.5t114 24t110.5 11.5t97.5 3q128 0 220.5 -16t157 -47t103.5 -77t60.5 -106.5t28.5 -135t7 -162.5l-1 -640h-192v640q0 107 -16 180.5t-64 118.5t-136 65t-232 20q-156 0 -255.5 -23t-156.5 -65t-78.5 -101t-21.5 -131 v-704h-192z" />
<glyph unicode="o" horiz-adv-x="1600" d="M96 584q0 177 38 293t122 184t218 95.5t326 27.5t326 -27.5t218 -95.5t122 -184t38 -293t-38 -294t-122 -186t-218 -97.5t-326 -28.5t-326 28.5t-218 97.5t-122 186t-38 294zM288 584q0 -96 7 -167t26.5 -122t54.5 -83t92 -51t138.5 -26t193.5 -7q96 0 171.5 4.5 t132 20.5t96.5 45.5t64.5 80.5t36 125.5t11.5 179.5q0 103 -11.5 175.5t-36 121.5t-64.5 77.5t-96.5 43t-132 18.5t-171.5 4t-171.5 -4t-132 -18.5t-96.5 -43t-64.5 -77.5t-36 -121.5t-11.5 -175.5z" />
<glyph unicode="p" horiz-adv-x="1632" d="M128 -384v1536h192v-107q13 20 43.5 44.5t89 45.5t150.5 35t229 14q192 0 326 -29t218 -99t122 -187.5t38 -294.5q0 -174 -38 -289t-122 -183t-218 -96t-326 -28q-137 0 -229 15t-150.5 37.5t-89 48.5t-43.5 49v-512h-192zM320 577q0 -103 11.5 -177t36.5 -123.5 t64.5 -79t96.5 -45t132 -20t171 -4.5q112 0 193.5 7t138.5 25t92.5 50t55 81.5t26 119t6.5 163.5t-6.5 164t-26 120t-55 82t-92.5 51t-138.5 26t-193.5 7q-96 0 -171 -5t-132 -20.5t-96.5 -45t-64.5 -79t-36.5 -122.5t-11.5 -175z" />
<glyph unicode="q" horiz-adv-x="1632" d="M96 584q0 177 38 293t122 184t218 95.5t326 27.5q136 0 228 -15t150.5 -37.5t89 -48.5t44.5 -48v117h192v-1536h-192v512q-14 -23 -44.5 -49t-89 -48.5t-150.5 -37.5t-228 -15q-192 0 -326 28.5t-218 97.5t-122 186t-38 294zM288 584q0 -96 6.5 -167t26 -122t55 -83 t92.5 -51t138.5 -26t193.5 -7q96 0 171 4.5t132 20.5t96.5 46t64.5 81t36.5 126t11.5 181q0 104 -11.5 177t-36.5 121.5t-64.5 76.5t-96.5 41.5t-132 17t-171 3.5q-112 0 -193.5 -6t-138.5 -23t-92.5 -47t-55 -79t-26 -119t-6.5 -166z" />
<glyph unicode="r" horiz-adv-x="1280" d="M128 0v1152h192v-183q10 31 37 68.5t82 70t142.5 54.5t218.5 22q150 0 244 -26.5t146.5 -78t71 -127.5t18.5 -175h-160q0 72 -10.5 119.5t-49.5 76t-115.5 40t-208.5 11.5q-129 0 -210 -22.5t-127 -63.5t-62.5 -98t-16.5 -127v-713h-192z" />
<glyph unicode="s" horiz-adv-x="1600" d="M128 320q0 -91 32.5 -154t107.5 -102.5t197.5 -57.5t302.5 -18q144 0 252.5 8.5t186.5 26t129.5 46t81.5 68t42 91t12 116.5t-12 114.5t-41.5 86t-78.5 67.5t-124 46t-177.5 21t-238.5 6q-112 0 -191 0.5t-132.5 6t-84.5 16.5t-47 32t-20.5 53.5t-4.5 66.5q0 58 26 91 t86 49t158 20t242 4q132 0 218.5 -7.5t137.5 -27t71.5 -53.5t20.5 -88h192q0 87 -29 150t-101.5 104.5t-196 61.5t-313.5 20q-192 0 -326 -17t-218 -55.5t-122 -100t-38 -151.5q0 -66 12 -122.5t41 -95t78.5 -61.5t124 -35.5t177.5 -16.5t239 -4q112 0 191 -3.5t132.5 -12 t84.5 -21.5t47 -38.5t20.5 -51t4.5 -58.5q0 -36 -4.5 -65.5t-21.5 -53.5t-50 -41t-90 -29t-141.5 -17.5t-204.5 -5.5q-132 0 -218.5 7.5t-137.5 28.5t-71.5 58.5t-20.5 97.5h-192z" />
<glyph unicode="&#x17f;" horiz-adv-x="1600" d="M128 320q0 -91 32.5 -154t107.5 -102.5t197.5 -57.5t302.5 -18q144 0 252.5 8.5t186.5 26t129.5 46t81.5 68t42 91t12 116.5t-12 114.5t-41.5 86t-78.5 67.5t-124 46t-177.5 21t-238.5 6q-112 0 -191 0.5t-132.5 6t-84.5 16.5t-47 32t-20.5 53.5t-4.5 66.5q0 58 26 91 t86 49t158 20t242 4q132 0 218.5 -7.5t137.5 -27t71.5 -53.5t20.5 -88h192q0 87 -29 150t-101.5 104.5t-196 61.5t-313.5 20q-192 0 -326 -17t-218 -55.5t-122 -100t-38 -151.5q0 -66 12 -122.5t41 -95t78.5 -61.5t124 -35.5t177.5 -16.5t239 -4q112 0 191 -3.5t132.5 -12 t84.5 -21.5t47 -38.5t20.5 -51t4.5 -58.5q0 -36 -4.5 -65.5t-21.5 -53.5t-50 -41t-90 -29t-141.5 -17.5t-204.5 -5.5q-132 0 -218.5 7.5t-137.5 28.5t-71.5 58.5t-20.5 97.5h-192z" />
<glyph unicode="t" horiz-adv-x="1376" d="M64 994v158h237v315h192v-315h723v-158h-723v-578q0 -96 14.5 -148t46.5 -76t84.5 -28t128.5 -4q60 0 107.5 2t83 12.5t60.5 32t40.5 60.5t22.5 98.5t7 146.5h160q0 -147 -24 -245.5t-80.5 -157.5t-148.5 -84t-227 -25q-131 0 -220 20t-144 68t-79 128t-24 200v578h-237z " />
<glyph unicode="u" horiz-adv-x="1601" d="M128 512l1 640h192v-640q0 -107 16 -180.5t64 -118.5t136 -65t232 -20q156 0 255.5 23t156.5 65t78.5 101t21.5 131v704h192v-1152h-192v192q-14 -31 -47 -68.5t-99 -69.5t-170.5 -54t-259.5 -22q-129 0 -221.5 15.5t-157 46t-103.5 75.5t-60 104.5t-28 132.5t-7 160z " />
<glyph unicode="v" horiz-adv-x="1600" d="M64 1152l608 -1152h256l608 1152h-224l-512 -1024l-512 1024h-224z" />
<glyph unicode="w" horiz-adv-x="2240" d="M64 1152l448 -1152h256l352 944l352 -944h256l448 1152h-224l-356 -1008l-380 1008h-192l-384 -1008l-352 1008h-224z" />
<glyph unicode="x" horiz-adv-x="1628" d="M96 0h256l462 482l462 -482h256l-590 587l562 565h-256l-429 -445l-439 445h-256l562 -566z" />
<glyph unicode="y" horiz-adv-x="1568" d="M64 1152l608 -1152h64q-16 -32 -28.5 -61t-30.5 -54t-45 -45t-71.5 -34.5t-110.5 -22t-162 -7.5v-160q112 0 194 10.5t141.5 30t100.5 47.5t71 63.5t53.5 78t47.5 90.5l32 64l576 1152h-224l-480 -1024l-512 1024h-224z" />
<glyph unicode="z" horiz-adv-x="1472" d="M128 0h1216v143h-962l962 849v160h-1152v-141h912l-976 -851v-160z" />
<glyph unicode="{" horiz-adv-x="960" d="M128 688q72 0 111 -9.5t57 -28.5t21 -47.5t3 -66.5q0 -66 2.5 -135.5t16.5 -136.5t45 -126.5t88 -104.5t144.5 -71t215.5 -26v160q-81 0 -136 13.5t-90.5 39t-54.5 63.5t-27.5 87t-10 108.5t-1.5 128.5q0 29 -2 60t-14 61t-38 58.5t-74 52.5q48 24 74 52.5t38 58.5t14 61 t2 60q0 69 1 128.5t10 108.5t28 87t54.5 63.5t90.5 39t136 13.5v160q-128 0 -215.5 -26t-144.5 -71t-88 -104.5t-45 -126.5t-16.5 -137t-2.5 -135q0 -36 -3 -64.5t-21 -48t-57 -29.5t-111 -10v-160z" />
<glyph unicode="|" d="M128 -128h192v1728h-192v-1728z" />
<glyph unicode="}" horiz-adv-x="960" d="M128 -64q128 0 215.5 26t144.5 71t88 104.5t45 126.5t16.5 137t2.5 135q0 38 3 66.5t21 47.5t57 28.5t111 9.5v160q-72 0 -111 10t-57 29.5t-21 48t-3 64.5q0 65 -3 135t-16.5 137t-44.5 126.5t-88 104.5t-144.5 71t-215.5 26v-160q80 0 135.5 -13.5t91 -39t54.5 -63.5 t27.5 -87t10 -108.5t1.5 -128.5q0 -29 2 -60t14 -61t38 -58.5t74 -52.5q-48 -24 -74 -52.5t-38 -58.5t-14 -61t-2 -60q0 -69 -1.5 -128.5t-10 -108.5t-27.5 -87t-54.5 -63.5t-91 -39t-135.5 -13.5v-160z" />
<glyph unicode="~" horiz-adv-x="1152" d="M128 832h192q0 31 4 50t12 29t20 13.5t28 3.5q45 0 83.5 -15t81.5 -33t95 -33t124 -15q36 0 80.5 12.5t83.5 42t65.5 78.5t26.5 123h-192q0 -30 -4 -49t-12 -29.5t-20 -14t-28 -3.5q-45 0 -83.5 15t-81.5 33t-95 33t-124 15q-36 0 -80.5 -11.5t-83.5 -40t-65.5 -78.5 t-26.5 -126z" />
<glyph unicode="&#xa1;" d="M128 1536v-191.988h192v191.988h-192zM128 0.09375h192l-48 1087.93h-96z" />
<glyph unicode="&#xa2;" horiz-adv-x="1601" d="M128 544q0 -112 12 -198t42.5 -150t82 -108t130 -70.5t186.5 -38t252 -11.5q192 0 316 24.5t196 75.5t100 129.5t28 186.5h-192q0 -40 -2 -74.5t-14.5 -63t-39.5 -50.5t-77 -37t-126.5 -23t-188.5 -8q-128 0 -215.5 8.5t-144.5 28t-88 51.5t-45 78t-16.5 108t-2.5 142 t2.5 142t16.5 108t45 78t88 51.5t144.5 28t215.5 8.5q112 0 188.5 -8t126.5 -23t77 -37t39.5 -50.5t14.5 -63t2 -74.5h192q0 108 -28 186.5t-100 129.5t-196 75.5t-316 24.5q-144 0 -252 -11.5t-186.5 -38t-130 -70.5t-82 -108t-42.5 -150t-12 -198z" />
<glyph unicode="&#xa3;" horiz-adv-x="1663" d="M64 640v160h192v158q0 120 12 212t42 160t81.5 113.5t130 73.5t186.5 40t252 12q171 0 282.5 -23.5t176.5 -72t91 -123t26 -177.5h-192q0 37 -2 69t-13.5 58t-35 46.5t-66 34.5t-108 21t-159.5 7q-128 0 -215.5 -9t-144.5 -29.5t-88 -55t-45 -84.5t-16.5 -117.5 t-2.5 -155.5v-158h832v-160h-832v-480h1024v-160h-1216v640h-192z" />
<glyph unicode="&#xa4;" horiz-adv-x="1280" d="M112 144l84 -97l150 129q58 -42 132.5 -61t161.5 -19q86 0 160.5 19t132.5 60l151 -128l84 97l-145 124q31 48 48 108t17 136q0 75 -16.5 135.5t-48.5 108.5l145 124l-84 97l-150 -129q-59 41 -133.5 60.5t-160.5 19.5q-87 0 -161 -19.5t-133 -60.5l-150 129l-84 -97 l144 -124q-31 -48 -47.5 -108.5t-16.5 -135.5q0 -76 16.5 -136t47.5 -108zM384 512q0 72 19.5 121t54 79t81.5 43t101 13t100.5 -13t81 -43t54.5 -79t20 -121t-20 -121t-54.5 -79t-81 -43t-100.5 -13t-101 13t-81.5 43t-54 79t-19.5 121z" />
<glyph unicode="&#xa5;" horiz-adv-x="2048" d="M64 1536h256l704 -768l704 768h256l-710 -736h358v-160h-512v-224h512v-160h-512v-256h-192v256h-512v160h512v224h-512v160h357z" />
<glyph unicode="&#xa6;" d="M128 -128h192v704h-192v-704zM128 896h192v704h-192v-704z" />
<glyph unicode="&#xa7;" horiz-adv-x="1504" d="M128 699q0 -33 7.5 -62.5t29 -53.5t61 -43.5t103.5 -32.5t156 -20t219 -7q112 0 191 -3.5t132.5 -11t84.5 -19.5t47 -30t20.5 -41.5t4.5 -54.5q0 -33 -4.5 -59.5t-21.5 -48t-50 -37.5t-90 -26.5t-141.5 -15.5t-204.5 -5q-102 0 -169 7.5t-107 28.5t-56 58.5t-16 97.5 h-192q0 -96 27.5 -163t90.5 -109t166.5 -61t255.5 -19q144 0 252.5 8.5t186.5 26t129.5 46t81.5 68t42 91t12 116.5q0 80 -19.5 135.5t-70.5 91.5q43 60 65.5 111.5t22.5 94.5q0 50 -33.5 88t-103.5 63.5t-178.5 38.5t-258.5 13q-112 0 -191 3.5t-132.5 11t-84 19.5 t-46.5 30t-20.5 41.5t-4.5 54.5q0 32 4.5 59t21.5 48.5t50 37.5t90 26.5t141.5 15.5t204.5 5q102 0 169 -7.5t107 -28.5t56 -58.5t16 -97.5h192q0 96 -27.5 163t-90.5 109t-166.5 61t-255.5 19q-144 0 -252.5 -8.5t-186.5 -26t-129.5 -46t-81.5 -68t-42 -91t-12 -116.5 q0 -81 20 -136.5t71 -92.5q-43 -52 -67.5 -99t-24.5 -89zM321 733q0 19 9.5 43.5t21.5 55.5q74 -17 184 -24.5t265 -7.5q106 0 179.5 -4t119.5 -14t66 -28t20 -46q0 -20 -8.5 -44.5t-24.5 -56.5q-77 18 -187 25.5t-262 7.5q-120 0 -195 4t-116.5 14t-56.5 28t-15 47z" />
<glyph unicode="&#xa8;" horiz-adv-x="1088" d="M64 1344h192v192h-192v-192zM832 1344h192v192h-192v-192z" />
<glyph unicode="&#xa9;" horiz-adv-x="1920" d="M128 864q0 -136 12.5 -248t46.5 -201t93 -155t151.5 -109.5t222.5 -65t306 -21.5t306 21.5t222.5 65t151.5 109.5t93 155t46.5 201t12.5 248t-12.5 248t-46.5 201t-93 155t-151.5 109.5t-222.5 65t-306 21.5t-306 -21.5t-222.5 -65t-151.5 -109.5t-93 -155t-46.5 -201 t-12.5 -248zM320 864q0 144 12 247.5t40.5 174.5t75.5 114t118.5 66t168.5 30.5t225 7.5t225 -7.5t168.5 -30.5t118.5 -66t75.5 -114t40.5 -174.5t12 -247.5t-12 -247.5t-40.5 -174.5t-75.5 -114t-118.5 -66t-168.5 -30.5t-225 -7.5t-225 7.5t-168.5 30.5t-118.5 66 t-75.5 114t-40.5 174.5t-12 247.5zM448 893q0 -141 21 -234t77.5 -148.5t156 -78t256.5 -22.5q152 0 251 20.5t157.5 63t81.5 108.5t23 157h-160q0 -34 -2 -62.5t-12.5 -52.5t-32 -42.5t-61 -31.5t-99.5 -19.5t-146 -6.5q-87 0 -146.5 7t-98.5 23.5t-60 43.5t-31 65.5 t-11.5 90.5t-1.5 119t1.5 119t11.5 90.5t31 65t60 43t98.5 23.5t146.5 7q86 0 146 -6.5t99.5 -19t61 -31t32 -42.5t12.5 -53t2 -62h160q0 90 -23 156t-81.5 108.5t-157.5 63t-251 20.5q-157 0 -256.5 -22.5t-156 -78t-77.5 -148t-21 -233.5z" />
<glyph unicode="&#xaa;" horiz-adv-x="1600" d="M128 293q0 87 20.5 147.5t60 101.5t95.5 64t127.5 35t156.5 15t181 3q137 0 229 -11.5t150.5 -29t88.5 -37.5t43 -37q0 112 -9.5 191t-31 132t-55.5 84.5t-83.5 47.5t-115.5 20.5t-151 4.5q-132 0 -219 -6.5t-138 -25.5t-72 -52.5t-21 -87.5h-192q0 91 32.5 154 t108 102.5t198.5 57.5t303 18q176 0 298 -29t197.5 -102t109 -196.5t33.5 -312.5v-544h-192v158q-3 -12 -45 -60q-30 -36 -80 -63.5t-133.5 -43t-219.5 -15.5q-181 0 -309 18.5t-209 57t-118.5 98.5t-37.5 143zM320 320q0 -60 17.5 -97.5t71.5 -58.5t155.5 -28.5t269.5 -7.5 q127 0 212.5 12t137.5 36t74 60t22 84t-25.5 81.5t-85 54.5t-157.5 30.5t-242 9.5t-232.5 -5t-136.5 -23t-64.5 -53t-16.5 -95z" />
<glyph unicode="&#xab;" horiz-adv-x="1344" d="M128 512v192l544 384l96 -128l-512 -352l512 -352l-96 -128zM576 512v192l544 384l96 -128l-512 -352l512 -352l-96 -128z" />
<glyph unicode="&#xac;" horiz-adv-x="1216" d="M128 928v160h960v-448h-192v288h-768z" />
<glyph unicode="&#xad;" horiz-adv-x="1024" d="M128 512v160h768v-160h-768z" />
<glyph unicode="&#xae;" horiz-adv-x="1920" d="M128 864q0 -136 12.5 -248t46.5 -201t93 -155t151.5 -109.5t222.5 -65t306 -21.5t306 21.5t222.5 65t151.5 109.5t93 155t46.5 201t12.5 248t-12.5 248t-46.5 201t-93 155t-151.5 109.5t-222.5 65t-306 21.5t-306 -21.5t-222.5 -65t-151.5 -109.5t-93 -155t-46.5 -201 t-12.5 -248zM320 864q0 144 12 247.5t40.5 174.5t75.5 114t118.5 66t168.5 30.5t225 7.5t225 -7.5t168.5 -30.5t118.5 -66t75.5 -114t40.5 -174.5t12 -247.5t-12 -247.5t-40.5 -174.5t-75.5 -114t-118.5 -66t-168.5 -30.5t-225 -7.5t-225 7.5t-168.5 30.5t-118.5 66 t-75.5 114t-40.5 174.5t-12 247.5zM573 384h160v416h95q95 0 163 -4t114 -14.5t73.5 -29t42 -48t19 -71t4.5 -97.5v-152h161v152q0 70 -8.5 126t-34.5 96.5t-74 66t-128 35.5q80 5 128 29.5t74 58t34 71t8 69.5q-1 70 -23 124t-82 90.5t-165.5 55t-273.5 18.5h-287v-992z M733 928v320h127q120 0 195 -8.5t117 -27.5t57 -49.5t15 -74.5q0 -46 -15 -76.5t-57 -49t-117 -26.5t-195 -8h-127z" />
<glyph unicode="&#xaf;" horiz-adv-x="1024" d="M128 1344h768v160h-768v-160z" />
<glyph unicode="&#xb0;" horiz-adv-x="1280" d="M192 512q0 -108 34 -186.5t94 -129.5t142 -75.5t178 -24.5t178 24.5t142 75.5t94 129.5t34 186.5t-34 186.5t-94 129.5t-142 75.5t-178 24.5t-178 -24.5t-142 -75.5t-94 -129.5t-34 -186.5zM384 512q0 72 19.5 121t54 79t81.5 43t101 13t100.5 -13t81 -43t54.5 -79 t20 -121t-20 -121t-54.5 -79t-81 -43t-100.5 -13t-101 13t-81.5 43t-54 79t-19.5 121z" />
<glyph unicode="&#xb1;" horiz-adv-x="1344" d="M128 800v160h448v448h192v-448h448v-160h-448v-480h-192v480h-448z" />
<glyph unicode="&#xb2;" horiz-adv-x="1344" d="M128 448h1058v160h-866q0 40 1.5 68t10.5 47.5t28.5 33.5t55 25.5t90 23t134.5 27.5l258 51q93 18 154.5 47.5t98 72.5t51 102t14.5 137q0 116 -33.5 181.5t-101 97.5t-169.5 39t-239 7q-89 0 -164 -2t-136 -11t-106.5 -28.5t-76.5 -55t-46.5 -90t-15.5 -133.5h192 q0 33 1 58t10 43t29 29.5t59.5 18t101 9t152.5 2.5q102 0 169.5 -3.5t108 -19.5t57 -49.5t16.5 -93.5t-12.5 -96.5t-36.5 -58t-59.5 -32.5t-81.5 -20l-386 -73q-110 -21 -173.5 -49t-96 -64t-41.5 -80t-9 -97v-224z" />
<glyph unicode="&#xb3;" horiz-adv-x="1471" d="M128 703q0 -78 18.5 -130t55 -83.5t91 -47t125.5 -21.5t159 -5.5t192 0.5q148 0 256 7t178.5 37.5t105 94.5t34.5 178q0 61 -9.5 100.5t-29 65.5t-49.5 43t-72 34q42 13 72 31.5t49.5 46.5t29 68t9.5 96q0 81 -15 136.5t-46 90.5t-78 54t-111 27t-145 9t-179 1 q-104 0 -192 1t-159 -5t-125.5 -23.5t-91 -52.5t-55 -93t-18.5 -145h192q0 38 2.5 65t15.5 44.5t40 27.5t77 14.5t126.5 5.5t187.5 1q114 0 188 1t116.5 -12t59.5 -46t17 -102q0 -50 -12 -81.5t-35.5 -49t-59.5 -24t-84 -6.5h-191v-160h191q16 0 36.5 0.5t41.5 -2t41.5 -11 t36.5 -26.5t25.5 -48t9.5 -75q0 -60 -17 -92.5t-59.5 -47t-116.5 -16.5t-188 -2q-111 0 -187.5 1t-126.5 4.5t-77 11.5t-40 22.5t-15.5 35.5t-2.5 52h-192z" />
<glyph unicode="&#xb4;" horiz-adv-x="960" d="M128 1376l64 -96l640 384l-128 192z" />
<glyph unicode="&#xb5;" horiz-adv-x="1601" d="M128 294v148v138q0 67 0.5 142.5t0.5 163.5v202h192v-576q0 -107 16 -180.5t64 -118.5t136 -65t232 -20q156 0 255.5 23t156.5 65t78.5 101t21.5 131v640h192v-1088h-192v191q-1 -2 -9.5 -19.5t-31 -42.5t-62 -53t-103 -52t-154.5 -40t-216 -16q-132 0 -225.5 16.5 t-158.5 48.5v-417h-192v280q0 123 -0.5 221t-0.5 177z" />
<glyph unicode="&#xb6;" horiz-adv-x="1984" d="M128 1088q0 -78 7.5 -144t32.5 -119.5t72 -94t125 -67.5t193 -41t275 -14h63v-608h192v1376h384v-1376h192v1376h192v160h-1023q-160 0 -274.5 -12.5t-193 -37.5t-125.5 -62t-72 -87t-32.5 -112t-7.5 -137z" />
<glyph unicode="&#xb7;" d="M128 704h192v192h-192v-192z" />
<glyph unicode="&#xb8;" horiz-adv-x="640" d="M128 64h128v-192q48 0 94 -7t82 -25t58 -49t22 -79q0 -84 -33 -134.5t-87 -77.5t-123 -35.5t-141 -8.5v160q48 0 84 1.5t60 10.5t36 28.5t12 55.5q0 12 -3 23.5t-21 20.5t-57 14.5t-111 5.5v288z" />
<glyph unicode="&#xb9;" horiz-adv-x="896" d="M64 1120l96 -128l416 384v-928h192v1088h-256z" />
<glyph unicode="&#xba;" horiz-adv-x="1664" d="M128 961q0 168 38 279t122 177t218 93t326 27t326 -27t218 -93t122 -177t38 -279t-38 -279t-122 -177t-218 -93t-326 -27t-326 27t-218 93t-122 177t-38 279zM320 961q0 -88 7 -153t26.5 -111.5t54.5 -75.5t92 -46t138.5 -23.5t193.5 -6.5q144 0 242 11t158 53t86 125 t26 227t-26 227t-86 125t-158 53t-242 11t-242 -11t-158 -53t-86 -125t-26 -227z" />
<glyph unicode="&#xbb;" horiz-adv-x="1344" d="M128 256l512 352l-512 352l96 128l544 -384v-192l-544 -384zM576 256l512 352l-512 352l96 128l544 -384v-192l-544 -384z" />
<glyph unicode="&#xbc;" horiz-adv-x="2848" d="M128 1120l96 -128l416 384v-928h192v1088h-256zM896 0l704 1536h192l-704 -1536h-192zM1504 192h832v-192h192v192h192v160h-192v736h-256l-768 -704v-192zM1696 352l640 608v-608h-640z" />
<glyph unicode="&#xbd;" horiz-adv-x="2880" d="M128 1120l96 -128l416 384v-928h192v1088h-256zM865 0l704 1536h192l-704 -1536h-192zM1664 4h1058v160h-866q0 40 1.5 68t10.5 47.5t28.5 33.5t55 25.5t90 23t134.5 27.5l258 51q93 18 154.5 47.5t98 72.5t51 102t14.5 137q0 116 -33.5 181.5t-101 97.5t-169.5 39 t-239 7q-89 0 -164 -2t-136 -11t-106.5 -28.5t-76.5 -55t-46.5 -90t-15.5 -133.5h192q0 33 1 58t10 43t29 29.5t59.5 18t101 9t152.5 2.5q102 0 169.5 -3.5t108 -19.5t57 -49.5t16.5 -93.5t-12.5 -96.5t-36.5 -58t-59.5 -32.5t-81.5 -20l-386 -73q-110 -21 -173.5 -49 t-96 -64t-41.5 -80t-9 -97v-224z" />
<glyph unicode="&#xbe;" horiz-adv-x="3072" d="M128 703q0 -78 18.5 -130t55 -83.5t91 -47t125.5 -21.5t159 -5.5t192 0.5q148 0 256 7t178.5 37.5t105 94.5t34.5 178q0 61 -9.5 100.5t-29 65.5t-49.5 43t-72 34q42 13 72 31.5t49.5 46.5t29 68t9.5 96q0 81 -15 136.5t-46 90.5t-78 54t-111 27t-145 9t-179 1 q-104 0 -192 1t-159 -5t-125.5 -23.5t-91 -52.5t-55 -93t-18.5 -145h192q0 38 2.5 65t15.5 44.5t40 27.5t77 14.5t126.5 5.5t187.5 1q114 0 188 1t116.5 -12t59.5 -46t17 -102q0 -50 -12 -81.5t-35.5 -49t-59.5 -24t-84 -6.5h-191v-160h191q16 0 36.5 0.5t41.5 -2t41.5 -11 t36.5 -26.5t25.5 -48t9.5 -75q0 -60 -17 -92.5t-59.5 -47t-116.5 -16.5t-188 -2q-111 0 -187.5 1t-126.5 4.5t-77 11.5t-40 22.5t-15.5 35.5t-2.5 52h-192zM1216 0l704 1536h192l-704 -1536h-192zM1728 192h832v-192h192v192h192v160h-192v736h-256l-768 -704v-192z M1920 352l640 608v-608h-640z" />
<glyph unicode="&#xbf;" horiz-adv-x="1856" d="M128 1122q0 112 26.5 188t78 125.5t127.5 76.5t175.5 39.5t222 14.5t266.5 2q112 0 208 -4t174 -18t138 -41t101 -73t62 -114.5t21 -164.5q0 -89 -25 -165.5t-79 -132.5t-139 -87.5t-205 -31.5q-96 0 -162 -8.5t-108.5 -28t-65.5 -51t-33.5 -77.5t-12.5 -108t-2 -142 h-192v66q0 60 2.5 121.5t16.5 118t45 105.5t88 85.5t144.5 57.5t215.5 21q72 0 131 8t100.5 34.5t64.5 77t23 136.5q0 94 -26 146t-85.5 76.5t-157.5 29t-242 4.5q-176 0 -296.5 -4.5t-199 -16t-120.5 -31.5t-61.5 -52t-23 -76.5t-3.5 -105.5h-192zM704 0v192h192v-192h-192 z" />
<glyph unicode="&#xc0;" horiz-adv-x="2304" d="M128 0l896 1536h256l896 -1536h-224l-192 352h-1216l-192 -352h-224zM640 512h1024l-512 896zM800 2112l128 192l576 -480l-64 -96z" />
<glyph unicode="&#xc1;" horiz-adv-x="2304" d="M128 0l896 1536h256l896 -1536h-224l-192 352h-1216l-192 -352h-224zM640 512h1024l-512 896zM800 1824l64 -96l640 384l-128 192z" />
<glyph unicode="&#xc2;" horiz-adv-x="2304" d="M128 0l896 1536h256l896 -1536h-224l-192 352h-1216l-192 -352h-224zM640 512h1024l-512 896zM736 1824l128 -96l288 448l288 -448l128 96l-320 480h-192z" />
<glyph unicode="&#xc3;" horiz-adv-x="2304" d="M128 0l896 1536h256l896 -1536h-224l-192 352h-1216l-192 -352h-224zM640 512h1024l-512 896zM704 1792h192q0 31 4 50t12 29t20 13.5t28 3.5q45 0 83.5 -15t81.5 -33t95 -33t124 -15q36 0 80.5 12.5t83.5 42t65.5 78.5t26.5 123h-192q0 -30 -4 -49t-12 -29.5t-20 -14 t-28 -3.5q-45 0 -83.5 15t-81.5 33.5t-95 33.5t-124 15q-36 0 -80.5 -11.5t-83.5 -40.5t-65.5 -79t-26.5 -126z" />
<glyph unicode="&#xc4;" horiz-adv-x="2304" d="M128 0l896 1536h256l896 -1536h-224l-192 352h-1216l-192 -352h-224zM640 512h1024l-512 896zM672 1792h192v192h-192v-192zM1440 1792h192v192h-192v-192z" />
<glyph unicode="&#xc5;" horiz-adv-x="2304" d="M128 0l896 1536h256l896 -1536h-224l-192 352h-1216l-192 -352h-224zM640 512h1024l-512 896zM800 2048q0 -60 19 -117.5t61 -102.5t109 -72.5t163 -27.5t163 27.5t109 72.5t61 102.5t19 117.5t-19 117.5t-61 102.5t-109 72.5t-163 27.5t-163 -27.5t-109 -72.5 t-61 -102.5t-19 -117.5zM960 2048q0 36 7.5 70.5t28.5 61.5t58.5 43.5t97.5 16.5t97.5 -16.5t58.5 -43.5t28.5 -61.5t7.5 -70.5t-7.5 -70.5t-28.5 -61.5t-58.5 -43.5t-97.5 -16.5t-97.5 16.5t-58.5 43.5t-28.5 61.5t-7.5 70.5z" />
<glyph unicode="&#xc6;" horiz-adv-x="3072" d="M0 0l1408 1536h1536v-160h-1280v-512h1216v-160h-1216v-544h1280v-160h-1472v352h-890l-326 -352h-256zM704 512h768v864z" />
<glyph unicode="&#xc7;" horiz-adv-x="2111" d="M128 768q0 136 3 248t22.5 201t62 155t120.5 109.5t198.5 65t296.5 21.5h449q144 0 252 -13.5t186 -41t129 -69.5t81.5 -99t42.5 -129t12 -160h-192q0 120 -26 190t-86 106t-157.5 46t-241.5 10h-449q-128 0 -215.5 -7.5t-144.5 -30.5t-88 -66t-45 -114t-16 -174.5 t-2 -247.5t2.5 -247.5t16.5 -174.5t44.5 -114t87.5 -66t144.5 -30.5t215.5 -7.5h449q112 0 193 6t138 22t92 44t54.5 70.5t26.5 102t7 139.5h192q0 -96 -12 -173.5t-42.5 -138t-81.5 -104.5t-129 -72.5t-186 -42t-252 -13.5h-193v-96q48 0 94 -7t82 -25t58 -49t22 -79 q0 -84 -33 -134.5t-87 -77.5t-123 -35.5t-141 -8.5v160q48 0 84 1.5t60 10.5t36 28.5t12 55.5q0 12 -3 23.5t-21 20.5t-57 14.5t-111 5.5v192h-128q-176 0 -296.5 21.5t-198.5 65t-120.5 109.5t-62 155t-22.5 201t-3 248z" />
<glyph unicode="&#xc8;" horiz-adv-x="1792" d="M192 0v1536h1536v-160h-1344v-512h1280v-160h-1280v-544h1344v-160h-1536zM608 2112l128 192l576 -480l-64 -96z" />
<glyph unicode="&#xc9;" horiz-adv-x="1792" d="M192 0v1536h1536v-160h-1344v-512h1280v-160h-1280v-544h1344v-160h-1536zM608 1824l64 -96l640 384l-128 192z" />
<glyph unicode="&#xca;" horiz-adv-x="1792" d="M192 0v1536h1536v-160h-1344v-512h1280v-160h-1280v-544h1344v-160h-1536zM544 1824l128 -96l288 448l288 -448l128 96l-320 480h-192z" />
<glyph unicode="&#xcb;" horiz-adv-x="1792" d="M192 0v1536h1536v-160h-1344v-512h1280v-160h-1280v-544h1344v-160h-1536zM480 1792h192v192h-192v-192zM1248 1792h192v192h-192v-192z" />
<glyph unicode="&#xcc;" d="M129 0v1536h192v-1536h-192zM-125 2112l128 192l576 -480l-64 -96z" />
<glyph unicode="&#xcd;" d="M129 0v1536h192v-1536h-192zM-125 1824l64 -96l640 384l-128 192z" />
<glyph unicode="&#xce;" d="M129 0v1536h192v-1536h-192zM-189 1824l128 -96l288 448l288 -448l128 96l-320 480h-192z" />
<glyph unicode="&#xcf;" d="M129 0v1536h192v-1536h-192zM-253 1792h192v192h-192v-192zM515 1792h192v192h-192v-192z" />
<glyph unicode="&#xd0;" horiz-adv-x="2112" d="M0 704h128v-704h1151q176 0 296.5 20.5t199 62.5t121 105t62 148.5t23 193t3.5 238.5t-3.5 238.5t-23 193t-62 148.5t-121 105t-199 62.5t-296.5 20.5h-1151v-672h-128v-160zM320 160v544h448v160h-448v512h959q128 0 215.5 -7t144.5 -28.5t88 -62.5t45.5 -108.5t17 -166 t2.5 -235.5t-2.5 -235.5t-17 -166t-45.5 -108.5t-88 -62.5t-145 -28.5t-215 -7h-959z" />
<glyph unicode="&#xd1;" horiz-adv-x="2193" d="M129 0v1536h337l1408 -1344v1344h192v-1536h-256l-1489 1376v-1376h-192zM648 1792h192q0 31 4 50t12 29t20 13.5t28 3.5q45 0 83.5 -15t81.5 -33t95 -33t124 -15q36 0 80.5 12.5t83.5 42t65.5 78.5t26.5 123h-192q0 -30 -4 -49t-12 -29.5t-20 -14t-28 -3.5 q-45 0 -83.5 15t-81.5 33.5t-95 33.5t-124 15q-36 0 -80.5 -11.5t-83.5 -40.5t-65.5 -79t-26.5 -126z" />
<glyph unicode="&#xd2;" horiz-adv-x="2240" d="M128 768q0 136 3 248t22.5 201t62 155t120.5 109.5t198.5 65t296.5 21.5h578q176 0 296.5 -21.5t198.5 -65t120 -109.5t61.5 -155t23 -201t3.5 -248t-3.5 -248t-23 -201t-61.5 -155t-120 -109.5t-198.5 -65t-296.5 -21.5h-578q-176 0 -296.5 21.5t-198.5 65t-120.5 109.5 t-62 155t-22.5 201t-3 248zM320 768q0 -144 2.5 -247.5t16.5 -174.5t44.5 -114t87.5 -66t144.5 -30.5t215.5 -7.5h578q127 0 214.5 7.5t144.5 30.5t88 66t45 114t16.5 174.5t2.5 247.5t-2.5 247.5t-16.5 174.5t-45 114t-87.5 66t-144 30.5t-215.5 7.5h-578 q-128 0 -215.5 -7.5t-144.5 -30.5t-88 -66t-45 -114t-16 -174.5t-2 -247.5zM767 2112l128 192l576 -480l-64 -96z" />
<glyph unicode="&#xd3;" horiz-adv-x="2240" d="M128 768q0 136 3 248t22.5 201t62 155t120.5 109.5t198.5 65t296.5 21.5h578q176 0 296.5 -21.5t198.5 -65t120 -109.5t61.5 -155t23 -201t3.5 -248t-3.5 -248t-23 -201t-61.5 -155t-120 -109.5t-198.5 -65t-296.5 -21.5h-578q-176 0 -296.5 21.5t-198.5 65t-120.5 109.5 t-62 155t-22.5 201t-3 248zM320 768q0 -144 2.5 -247.5t16.5 -174.5t44.5 -114t87.5 -66t144.5 -30.5t215.5 -7.5h578q127 0 214.5 7.5t144.5 30.5t88 66t45 114t16.5 174.5t2.5 247.5t-2.5 247.5t-16.5 174.5t-45 114t-87.5 66t-144 30.5t-215.5 7.5h-578 q-128 0 -215.5 -7.5t-144.5 -30.5t-88 -66t-45 -114t-16 -174.5t-2 -247.5zM767 1824l64 -96l640 384l-128 192z" />
<glyph unicode="&#xd4;" horiz-adv-x="2240" d="M128 768q0 136 3 248t22.5 201t62 155t120.5 109.5t198.5 65t296.5 21.5h578q176 0 296.5 -21.5t198.5 -65t120 -109.5t61.5 -155t23 -201t3.5 -248t-3.5 -248t-23 -201t-61.5 -155t-120 -109.5t-198.5 -65t-296.5 -21.5h-578q-176 0 -296.5 21.5t-198.5 65t-120.5 109.5 t-62 155t-22.5 201t-3 248zM320 768q0 -144 2.5 -247.5t16.5 -174.5t44.5 -114t87.5 -66t144.5 -30.5t215.5 -7.5h578q127 0 214.5 7.5t144.5 30.5t88 66t45 114t16.5 174.5t2.5 247.5t-2.5 247.5t-16.5 174.5t-45 114t-87.5 66t-144 30.5t-215.5 7.5h-578 q-128 0 -215.5 -7.5t-144.5 -30.5t-88 -66t-45 -114t-16 -174.5t-2 -247.5zM703 1824l128 -96l288 448l288 -448l128 96l-320 480h-192z" />
<glyph unicode="&#xd5;" horiz-adv-x="2240" d="M128 768q0 136 3 248t22.5 201t62 155t120.5 109.5t198.5 65t296.5 21.5h578q176 0 296.5 -21.5t198.5 -65t120 -109.5t61.5 -155t23 -201t3.5 -248t-3.5 -248t-23 -201t-61.5 -155t-120 -109.5t-198.5 -65t-296.5 -21.5h-578q-176 0 -296.5 21.5t-198.5 65t-120.5 109.5 t-62 155t-22.5 201t-3 248zM320 768q0 -144 2.5 -247.5t16.5 -174.5t44.5 -114t87.5 -66t144.5 -30.5t215.5 -7.5h578q127 0 214.5 7.5t144.5 30.5t88 66t45 114t16.5 174.5t2.5 247.5t-2.5 247.5t-16.5 174.5t-45 114t-87.5 66t-144 30.5t-215.5 7.5h-578 q-128 0 -215.5 -7.5t-144.5 -30.5t-88 -66t-45 -114t-16 -174.5t-2 -247.5zM671 1792h192q0 31 4 50t12 29t20 13.5t28 3.5q45 0 83.5 -15t81.5 -33t95 -33t124 -15q36 0 80.5 12.5t83.5 42t65.5 78.5t26.5 123h-192q0 -30 -4 -49t-12 -29.5t-20 -14t-28 -3.5 q-45 0 -83.5 15t-81.5 33.5t-95 33.5t-124 15q-36 0 -80.5 -11.5t-83.5 -40.5t-65.5 -79t-26.5 -126z" />
<glyph unicode="&#xd6;" horiz-adv-x="2240" d="M128 768q0 136 3 248t22.5 201t62 155t120.5 109.5t198.5 65t296.5 21.5h578q176 0 296.5 -21.5t198.5 -65t120 -109.5t61.5 -155t23 -201t3.5 -248t-3.5 -248t-23 -201t-61.5 -155t-120 -109.5t-198.5 -65t-296.5 -21.5h-578q-176 0 -296.5 21.5t-198.5 65t-120.5 109.5 t-62 155t-22.5 201t-3 248zM320 768q0 -144 2.5 -247.5t16.5 -174.5t44.5 -114t87.5 -66t144.5 -30.5t215.5 -7.5h578q127 0 214.5 7.5t144.5 30.5t88 66t45 114t16.5 174.5t2.5 247.5t-2.5 247.5t-16.5 174.5t-45 114t-87.5 66t-144 30.5t-215.5 7.5h-578 q-128 0 -215.5 -7.5t-144.5 -30.5t-88 -66t-45 -114t-16 -174.5t-2 -247.5zM639 1792h192v192h-192v-192zM1407 1792h192v192h-192v-192z" />
<glyph unicode="&#xd7;" horiz-adv-x="1344" d="M219 547l136 -136l317 317l317 -317l136 136l-317 317l317 317l-136 136l-317 -317l-317 317l-136 -136l317 -317z" />
<glyph unicode="&#xd8;" horiz-adv-x="2241" d="M129 768q0 136 3 248t22.5 201t62 155t120.5 109.5t198.5 65t296.5 21.5h578h4l90 224l160 -64l-68 -167q60 -6 110 -15q121 -21 199 -64.5t120 -109.5t61.5 -155t23 -201t3.5 -248t-3.5 -248t-23 -201t-61.5 -155t-120 -109.5t-198.5 -65t-296.5 -21.5h-456l-90 -224 l-160 64l65 161q-135 3 -234 21q-120 21 -198 64.5t-120.5 109.5t-62 155t-22.5 201t-3 248zM321 768q0 -144 2.5 -247.5t16.5 -174.5t44.5 -114t87.5 -66t144.5 -30.5t215.5 -7.5h1l516 1280h-517q-128 0 -216 -8q-87 -7 -144 -30t-88 -66t-45 -114t-16 -174.5t-2 -247.5z M1019 128h391q127 0 214.5 7.5t144.5 30.5t88 66t45 114t16.5 174.5t2.5 247.5t-2.5 247.5t-16.5 174.5t-45 114t-87.5 66t-144.5 30q-41 4 -91 6z" />
<glyph unicode="&#xd9;" horiz-adv-x="2113" d="M129 768v768h192v-768q0 -144 2.5 -247.5t16.5 -174.5t44.5 -114t87.5 -66t144.5 -30.5t215.5 -7.5h450q127 0 215 7.5t144.5 30.5t87.5 66t45.5 114t16.5 174.5t2 247.5l-1 768h193v-768q0 -136 -3.5 -248t-23 -201t-61.5 -155t-120 -109.5t-198.5 -65t-296.5 -21.5 h-450q-176 0 -296.5 21.5t-198.5 65t-120.5 109.5t-62 155t-22.5 201t-3 248zM704 2112l128 192l576 -480l-64 -96z" />
<glyph unicode="&#xda;" horiz-adv-x="2113" d="M129 768v768h192v-768q0 -144 2.5 -247.5t16.5 -174.5t44.5 -114t87.5 -66t144.5 -30.5t215.5 -7.5h450q127 0 215 7.5t144.5 30.5t87.5 66t45.5 114t16.5 174.5t2 247.5l-1 768h193v-768q0 -136 -3.5 -248t-23 -201t-61.5 -155t-120 -109.5t-198.5 -65t-296.5 -21.5 h-450q-176 0 -296.5 21.5t-198.5 65t-120.5 109.5t-62 155t-22.5 201t-3 248zM704 1824l64 -96l640 384l-128 192z" />
<glyph unicode="&#xdb;" horiz-adv-x="2113" d="M129 768v768h192v-768q0 -144 2.5 -247.5t16.5 -174.5t44.5 -114t87.5 -66t144.5 -30.5t215.5 -7.5h450q127 0 215 7.5t144.5 30.5t87.5 66t45.5 114t16.5 174.5t2 247.5l-1 768h193v-768q0 -136 -3.5 -248t-23 -201t-61.5 -155t-120 -109.5t-198.5 -65t-296.5 -21.5 h-450q-176 0 -296.5 21.5t-198.5 65t-120.5 109.5t-62 155t-22.5 201t-3 248zM640 1824l128 -96l288 448l288 -448l128 96l-320 480h-192z" />
<glyph unicode="&#xdc;" horiz-adv-x="2113" d="M129 768v768h192v-768q0 -144 2.5 -247.5t16.5 -174.5t44.5 -114t87.5 -66t144.5 -30.5t215.5 -7.5h450q127 0 215 7.5t144.5 30.5t87.5 66t45.5 114t16.5 174.5t2 247.5l-1 768h193v-768q0 -136 -3.5 -248t-23 -201t-61.5 -155t-120 -109.5t-198.5 -65t-296.5 -21.5 h-450q-176 0 -296.5 21.5t-198.5 65t-120.5 109.5t-62 155t-22.5 201t-3 248zM576 1792h192v192h-192v-192zM1344 1792h192v192h-192v-192z" />
<glyph unicode="&#xdd;" horiz-adv-x="2176" d="M128 1536h256l704 -752l704 752h256l-864 -896v-640h-192v640zM748 1824l64 -96l640 384l-128 192z" />
<glyph unicode="&#xde;" horiz-adv-x="1920" d="M128 0h192v416h831q176 0 296.5 14t199 41t121 67.5t62 94t23 119.5t3.5 144q0 75 -2.5 137t-18.5 112t-50.5 87t-98.5 62t-162.5 37.5t-241.5 12.5h-962v192h-192v-1536zM320 576v608h831q128 0 215.5 -3t144.5 -13.5t88 -29.5t45.5 -51t17 -79t2.5 -112 q0 -70 -2.5 -120.5t-17 -86.5t-45.5 -58t-88 -34t-144.5 -16.5t-215.5 -4.5h-831z" />
<glyph unicode="&#xdf;" horiz-adv-x="2048" d="M128 -128h192v1186q0 71 7 122.5t26.5 87t54.5 57t92 33t139 15t194 3.5h383q96 0 168 -7.5t120 -29t72 -61.5t24 -104q0 -89 -14 -143.5t-55.5 -84.5t-117 -40t-198.5 -10h-703v-160h703q112 0 194 -3.5t139 -13.5t92 -27.5t54.5 -46t26.5 -70t7 -97.5q0 -72 -7 -123 t-26.5 -86.5t-54.5 -57t-92 -33t-139 -15t-194 -3.5h-703v-160h767q144 0 247.5 13t175 39.5t114.5 66.5t66 93t30.5 119.5t7.5 146.5q0 66 -14 116.5t-36.5 88t-51 63t-58.5 42.5q-70 39 -160 44q54 5 96 43q18 16 35 40.5t30.5 60.5t22 85t8.5 113q0 88 -26 156t-86 113.5 t-158 69t-242 23.5h-511q-144 0 -247.5 -13t-175 -39.5t-114.5 -66.5t-66 -93t-30.5 -119.5t-7.5 -146.5v-1186z" />
<glyph unicode="&#xe0;" horiz-adv-x="1600" d="M128 293q0 87 20.5 147.5t60 101.5t95.5 64t127.5 35t156.5 15t181 3q137 0 229 -11.5t150.5 -29t88.5 -37.5t43 -37q0 112 -9.5 191t-31 132t-55.5 84.5t-83.5 47.5t-115.5 20.5t-151 4.5q-132 0 -219 -6.5t-138 -25.5t-72 -52.5t-21 -87.5h-192q0 91 32.5 154 t108 102.5t198.5 57.5t303 18q176 0 298 -29t197.5 -102t109 -196.5t33.5 -312.5v-544h-192v158q-3 -12 -45 -60q-30 -36 -80 -63.5t-133.5 -43t-219.5 -15.5q-181 0 -309 18.5t-209 57t-118.5 98.5t-37.5 143zM320 320q0 -60 17.5 -97.5t71.5 -58.5t155.5 -28.5t269.5 -7.5 q127 0 212.5 12t137.5 36t74 60t22 84t-25.5 81.5t-85 54.5t-157.5 30.5t-242 9.5t-232.5 -5t-136.5 -23t-64.5 -53t-16.5 -95zM448 1664l128 192l576 -480l-64 -96z" />
<glyph unicode="&#xe1;" horiz-adv-x="1600" d="M128 293q0 87 20.5 147.5t60 101.5t95.5 64t127.5 35t156.5 15t181 3q137 0 229 -11.5t150.5 -29t88.5 -37.5t43 -37q0 112 -9.5 191t-31 132t-55.5 84.5t-83.5 47.5t-115.5 20.5t-151 4.5q-132 0 -219 -6.5t-138 -25.5t-72 -52.5t-21 -87.5h-192q0 91 32.5 154 t108 102.5t198.5 57.5t303 18q176 0 298 -29t197.5 -102t109 -196.5t33.5 -312.5v-544h-192v158q-3 -12 -45 -60q-30 -36 -80 -63.5t-133.5 -43t-219.5 -15.5q-181 0 -309 18.5t-209 57t-118.5 98.5t-37.5 143zM320 320q0 -60 17.5 -97.5t71.5 -58.5t155.5 -28.5t269.5 -7.5 q127 0 212.5 12t137.5 36t74 60t22 84t-25.5 81.5t-85 54.5t-157.5 30.5t-242 9.5t-232.5 -5t-136.5 -23t-64.5 -53t-16.5 -95zM448 1376l64 -96l640 384l-128 192z" />
<glyph unicode="&#xe2;" horiz-adv-x="1600" d="M128 293q0 87 20.5 147.5t60 101.5t95.5 64t127.5 35t156.5 15t181 3q137 0 229 -11.5t150.5 -29t88.5 -37.5t43 -37q0 112 -9.5 191t-31 132t-55.5 84.5t-83.5 47.5t-115.5 20.5t-151 4.5q-132 0 -219 -6.5t-138 -25.5t-72 -52.5t-21 -87.5h-192q0 91 32.5 154 t108 102.5t198.5 57.5t303 18q176 0 298 -29t197.5 -102t109 -196.5t33.5 -312.5v-544h-192v158q-3 -12 -45 -60q-30 -36 -80 -63.5t-133.5 -43t-219.5 -15.5q-181 0 -309 18.5t-209 57t-118.5 98.5t-37.5 143zM320 320q0 -60 17.5 -97.5t71.5 -58.5t155.5 -28.5t269.5 -7.5 q127 0 212.5 12t137.5 36t74 60t22 84t-25.5 81.5t-85 54.5t-157.5 30.5t-242 9.5t-232.5 -5t-136.5 -23t-64.5 -53t-16.5 -95zM384 1376l128 -96l288 448l288 -448l128 96l-320 480h-192z" />
<glyph unicode="&#xe3;" horiz-adv-x="1600" d="M128 293q0 87 20.5 147.5t60 101.5t95.5 64t127.5 35t156.5 15t181 3q137 0 229 -11.5t150.5 -29t88.5 -37.5t43 -37q0 112 -9.5 191t-31 132t-55.5 84.5t-83.5 47.5t-115.5 20.5t-151 4.5q-132 0 -219 -6.5t-138 -25.5t-72 -52.5t-21 -87.5h-192q0 91 32.5 154 t108 102.5t198.5 57.5t303 18q176 0 298 -29t197.5 -102t109 -196.5t33.5 -312.5v-544h-192v158q-3 -12 -45 -60q-30 -36 -80 -63.5t-133.5 -43t-219.5 -15.5q-181 0 -309 18.5t-209 57t-118.5 98.5t-37.5 143zM320 320q0 -60 17.5 -97.5t71.5 -58.5t155.5 -28.5t269.5 -7.5 q127 0 212.5 12t137.5 36t74 60t22 84t-25.5 81.5t-85 54.5t-157.5 30.5t-242 9.5t-232.5 -5t-136.5 -23t-64.5 -53t-16.5 -95zM352 1344h192q0 31 4 50t12 29t20 13.5t28 3.5q45 0 83.5 -15t81.5 -33t95 -33t124 -15q36 0 80.5 12.5t83.5 42t65.5 78.5t26.5 123h-192 q0 -30 -4 -49t-12 -29.5t-20 -14t-28 -3.5q-45 0 -83.5 15t-81.5 33.5t-95 33.5t-124 15q-36 0 -80.5 -11.5t-83.5 -40.5t-65.5 -79t-26.5 -126z" />
<glyph unicode="&#xe4;" horiz-adv-x="1600" d="M128 293q0 87 20.5 147.5t60 101.5t95.5 64t127.5 35t156.5 15t181 3q137 0 229 -11.5t150.5 -29t88.5 -37.5t43 -37q0 112 -9.5 191t-31 132t-55.5 84.5t-83.5 47.5t-115.5 20.5t-151 4.5q-132 0 -219 -6.5t-138 -25.5t-72 -52.5t-21 -87.5h-192q0 91 32.5 154 t108 102.5t198.5 57.5t303 18q176 0 298 -29t197.5 -102t109 -196.5t33.5 -312.5v-544h-192v158q-3 -12 -45 -60q-30 -36 -80 -63.5t-133.5 -43t-219.5 -15.5q-181 0 -309 18.5t-209 57t-118.5 98.5t-37.5 143zM320 320q0 -60 17.5 -97.5t71.5 -58.5t155.5 -28.5t269.5 -7.5 q127 0 212.5 12t137.5 36t74 60t22 84t-25.5 81.5t-85 54.5t-157.5 30.5t-242 9.5t-232.5 -5t-136.5 -23t-64.5 -53t-16.5 -95zM320 1344h192v192h-192v-192zM1088 1344h192v192h-192v-192z" />
<glyph unicode="&#xe5;" horiz-adv-x="1600" d="M128 293q0 87 20.5 147.5t60 101.5t95.5 64t127.5 35t156.5 15t181 3q137 0 229 -11.5t150.5 -29t88.5 -37.5t43 -37q0 112 -9.5 191t-31 132t-55.5 84.5t-83.5 47.5t-115.5 20.5t-151 4.5q-132 0 -219 -6.5t-138 -25.5t-72 -52.5t-21 -87.5h-192q0 91 32.5 154 t108 102.5t198.5 57.5t303 18q176 0 298 -29t197.5 -102t109 -196.5t33.5 -312.5v-544h-192v158q-3 -12 -45 -60q-30 -36 -80 -63.5t-133.5 -43t-219.5 -15.5q-181 0 -309 18.5t-209 57t-118.5 98.5t-37.5 143zM320 320q0 -60 17.5 -97.5t71.5 -58.5t155.5 -28.5t269.5 -7.5 q127 0 212.5 12t137.5 36t74 60t22 84t-25.5 81.5t-85 54.5t-157.5 30.5t-242 9.5t-232.5 -5t-136.5 -23t-64.5 -53t-16.5 -95zM448 1600q0 -60 19 -117.5t61 -102.5t109 -72.5t163 -27.5t163 27.5t109 72.5t61 102.5t19 117.5t-19 117.5t-61 102.5t-109 72.5t-163 27.5 t-163 -27.5t-109 -72.5t-61 -102.5t-19 -117.5zM608 1600q0 36 7.5 70.5t28.5 61.5t58.5 43.5t97.5 16.5t97.5 -16.5t58.5 -43.5t28.5 -61.5t7.5 -70.5t-7.5 -70.5t-28.5 -61.5t-58.5 -43.5t-97.5 -16.5t-97.5 16.5t-58.5 43.5t-28.5 61.5t-7.5 70.5z" />
<glyph unicode="&#xe6;" horiz-adv-x="2752" d="M128 293q0 87 20.5 147.5t60 101.5t95.5 64t127.5 35t156.5 15t181 3q84 0 150.5 -5t118.5 -13t90 -18.5t65 -21.5q63 -26 87 -57q0 96 -9.5 164t-31 114.5t-55.5 73.5t-83.5 41.5t-115.5 18.5t-151 4q-132 0 -219 -7.5t-138 -28.5t-72 -58.5t-21 -97.5h-192 q0 96 32.5 163t108 109t198.5 61t303 19q105 0 189.5 -8t151.5 -32t118 -68t89 -116q34 72 89 116t131 68t171.5 32t210.5 8q137 0 237.5 -18.5t172 -52.5t116 -83t70 -109t35 -131t9.5 -150l-16 -64h-1136v-26q2 -123 29.5 -194.5t88 -107.5t157 -46t237.5 -10 q132 0 218.5 7.5t137.5 28.5t71.5 58.5t20.5 97.5h192q0 -96 -32.5 -163t-107.5 -109t-197.5 -61t-302.5 -19q-115 0 -208.5 9t-168 30t-130.5 54.5t-95 83.5q-28 -37 -73 -67q-32 -21 -77 -41.5t-106.5 -36.5t-141.5 -26t-182 -10q-181 0 -309 19t-209 59.5t-118.5 102.5 t-37.5 148zM320 320q0 -60 17.5 -97.5t71.5 -58.5t155.5 -28.5t269.5 -7.5q127 0 212.5 12t137.5 36t74 60t22 84t-25.5 81.5t-85 54.5t-157.5 30.5t-242 9.5t-232.5 -5t-136.5 -23t-64.5 -53t-16.5 -95zM1472 640h960q0 96 -25 158t-79 98t-139 50t-205 14 q-144 0 -242 -9.5t-158 -42.5t-86 -96.5t-26 -171.5z" />
<glyph unicode="&#xe7;" horiz-adv-x="1601" d="M128 544q0 -112 12 -198t42.5 -150t82 -108t130 -70.5t186.5 -37.5q56 -6 123 -9v-195q72 0 111 -5.5t57 -14.5t21 -20.5t3 -23.5q0 -36 -12 -55.5t-36 -28.5t-60 -10.5t-84 -1.5v-160q72 0 141 8.5t123 35.5t87 77.5t33 134.5q0 48 -22 79t-58 49t-82 25t-94 7v96h1 q192 0 316 24.5t196 75.5t100 129.5t28 186.5h-192q0 -40 -2 -74.5t-14.5 -63t-39.5 -50.5t-77 -37t-126.5 -23t-188.5 -8q-128 0 -215.5 8.5t-144.5 28t-88 51.5t-45 78t-16.5 108t-2.5 142t2.5 142t16.5 108t45 78t88 51.5t144.5 28t215.5 8.5q112 0 188.5 -8t126.5 -23 t77 -37t39.5 -50.5t14.5 -63t2 -74.5h192q0 108 -28 186.5t-100 129.5t-196 75.5t-316 24.5q-144 0 -252 -11.5t-186.5 -38t-130 -70.5t-82 -108t-42.5 -150t-12 -198z" />
<glyph unicode="&#xe8;" horiz-adv-x="1600" d="M128 544q0 189 38 312.5t122 196.5t218 102t326 29q137 0 237.5 -20t172 -58t116 -92t70 -113.5t35 -139.5t9.5 -169l-16 -64h-1136q0 -132 26 -216.5t86 -123.5t158 -49.5t242 -10.5q132 0 218.5 7.5t137.5 28.5t71.5 58.5t20.5 97.5h192q0 -93 -32.5 -158.5 t-107.5 -106t-197.5 -59t-302.5 -18.5q-192 0 -326 26.5t-218 91.5t-122 174t-38 274zM320 656h960q0 117 -25 183.5t-79 109.5t-139 59t-205 16q-96 0 -171.5 -4t-132 -17.5t-96.5 -39t-64.5 -60t-36 -97t-11.5 -150.5zM448 1664l128 192l576 -480l-64 -96z" />
<glyph unicode="&#xe9;" horiz-adv-x="1600" d="M128 544q0 189 38 312.5t122 196.5t218 102t326 29q137 0 237.5 -20t172 -58t116 -92t70 -113.5t35 -139.5t9.5 -169l-16 -64h-1136q0 -132 26 -216.5t86 -123.5t158 -49.5t242 -10.5q132 0 218.5 7.5t137.5 28.5t71.5 58.5t20.5 97.5h192q0 -93 -32.5 -158.5 t-107.5 -106t-197.5 -59t-302.5 -18.5q-192 0 -326 26.5t-218 91.5t-122 174t-38 274zM320 656h960q0 117 -25 183.5t-79 109.5t-139 59t-205 16q-96 0 -171.5 -4t-132 -17.5t-96.5 -39t-64.5 -60t-36 -97t-11.5 -150.5zM448 1376l64 -96l640 384l-128 192z" />
<glyph unicode="&#xea;" horiz-adv-x="1600" d="M128 544q0 189 38 312.5t122 196.5t218 102t326 29q137 0 237.5 -20t172 -58t116 -92t70 -113.5t35 -139.5t9.5 -169l-16 -64h-1136q0 -132 26 -216.5t86 -123.5t158 -49.5t242 -10.5q132 0 218.5 7.5t137.5 28.5t71.5 58.5t20.5 97.5h192q0 -93 -32.5 -158.5 t-107.5 -106t-197.5 -59t-302.5 -18.5q-192 0 -326 26.5t-218 91.5t-122 174t-38 274zM320 656h960q0 117 -25 183.5t-79 109.5t-139 59t-205 16q-96 0 -171.5 -4t-132 -17.5t-96.5 -39t-64.5 -60t-36 -97t-11.5 -150.5zM384 1376l128 -96l288 448l288 -448l128 96l-320 480 h-192z" />
<glyph unicode="&#xeb;" horiz-adv-x="1600" d="M128 544q0 189 38 312.5t122 196.5t218 102t326 29q137 0 237.5 -20t172 -58t116 -92t70 -113.5t35 -139.5t9.5 -169l-16 -64h-1136q0 -132 26 -216.5t86 -123.5t158 -49.5t242 -10.5q132 0 218.5 7.5t137.5 28.5t71.5 58.5t20.5 97.5h192q0 -93 -32.5 -158.5 t-107.5 -106t-197.5 -59t-302.5 -18.5q-192 0 -326 26.5t-218 91.5t-122 174t-38 274zM320 656h960q0 117 -25 183.5t-79 109.5t-139 59t-205 16q-96 0 -171.5 -4t-132 -17.5t-96.5 -39t-64.5 -60t-36 -97t-11.5 -150.5zM320 1344h192v192h-192v-192zM1088 1344h192v192 h-192v-192z" />
<glyph unicode="&#xec;" d="M128 0h192v1088h-192v-1088zM-125 1664l128 192l576 -480l-64 -96z" />
<glyph unicode="&#xed;" d="M128 0h192v1088h-192v-1088zM-125 1376l64 -96l640 384l-128 192z" />
<glyph unicode="&#xee;" d="M128 0h192v1088h-192v-1088zM-189 1376l128 -96l288 448l288 -448l128 96l-320 480h-192z" />
<glyph unicode="&#xef;" d="M128 0h192v1088h-192v-1088zM-253 1344h192v192h-192v-192zM515 1344h192v192h-192v-192z" />
<glyph unicode="&#xf0;" horiz-adv-x="1984" d="M128 448q0 -120 29 -210t106.5 -150t214.5 -90t353 -30h321q176 0 296.5 21.5t199 65t120.5 109.5t61.5 155t23 201t3.5 248q0 131 -14 237t-46 191l251 90l-43 120l-265 -95q-45 67 -109.5 116t-152 80t-200 46t-253.5 15q-176 0 -306 -13t-222.5 -39t-151.5 -64 t-92.5 -88t-46 -111t-12.5 -133h159q0 40 5.5 77t26.5 69t64 58t117.5 45t186.5 29t272 10q105 0 191.5 -4.5t155.5 -20t120.5 -46.5t87.5 -84l-298 -107l43 -120l307 110q33 -116 33 -304q-26 16 -58.5 29t-77.5 24t-106 19t-145 13.5t-194 8t-252 2.5q-216 0 -353 -30 t-214.5 -90t-106.5 -150t-29 -210zM320 448q0 64 7 112.5t26.5 84t54.5 59.5t92 38t138 20t193 6q185 0 319 -2.5t226.5 -11.5t149 -26t87.5 -45.5t41 -70.5t10 -100q0 -120 -21 -195t-77.5 -117t-156.5 -57t-257 -15h-321q-112 0 -193.5 6t-138 20t-92 38t-55 59.5t-26 84 t-6.5 112.5z" />
<glyph unicode="&#xf1;" horiz-adv-x="1602" d="M128 0v1152h192v-192q21 49 60 84.5t88 60.5t106 40.5t114 24t110.5 11.5t97.5 3q128 0 220.5 -16t157 -47t103.5 -77t60.5 -106.5t28.5 -135t7 -162.5l-1 -640h-192v640q0 107 -16 180.5t-64 118.5t-136 65t-232 20q-156 0 -255.5 -23t-156.5 -65t-78.5 -101t-21.5 -131 v-704h-192zM353 1344h192q0 31 4 50t12 29t20 13.5t28 3.5q45 0 83.5 -15t81.5 -33t95 -33t124 -15q36 0 80.5 12.5t83.5 42t65.5 78.5t26.5 123h-192q0 -30 -4 -49t-12 -29.5t-20 -14t-28 -3.5q-45 0 -83.5 15t-81.5 33.5t-95 33.5t-124 15q-36 0 -80.5 -11.5t-83.5 -40.5 t-65.5 -79t-26.5 -126z" />
<glyph unicode="&#xf2;" horiz-adv-x="1664" d="M128 584q0 177 38 293t122 184t218 95.5t326 27.5t326 -27.5t218 -95.5t122 -184t38 -293t-38 -294t-122 -186t-218 -97.5t-326 -28.5t-326 28.5t-218 97.5t-122 186t-38 294zM320 584q0 -96 7 -167t26.5 -122t54.5 -83t92 -51t138.5 -26t193.5 -7q96 0 171.5 4.5 t132 20.5t96.5 45.5t64.5 80.5t36 125.5t11.5 179.5q0 103 -11.5 175.5t-36 121.5t-64.5 77.5t-96.5 43t-132 18.5t-171.5 4t-171.5 -4t-132 -18.5t-96.5 -43t-64.5 -77.5t-36 -121.5t-11.5 -175.5zM480 1664l128 192l576 -480l-64 -96z" />
<glyph unicode="&#xf3;" horiz-adv-x="1664" d="M128 584q0 177 38 293t122 184t218 95.5t326 27.5t326 -27.5t218 -95.5t122 -184t38 -293t-38 -294t-122 -186t-218 -97.5t-326 -28.5t-326 28.5t-218 97.5t-122 186t-38 294zM320 584q0 -96 7 -167t26.5 -122t54.5 -83t92 -51t138.5 -26t193.5 -7q96 0 171.5 4.5 t132 20.5t96.5 45.5t64.5 80.5t36 125.5t11.5 179.5q0 103 -11.5 175.5t-36 121.5t-64.5 77.5t-96.5 43t-132 18.5t-171.5 4t-171.5 -4t-132 -18.5t-96.5 -43t-64.5 -77.5t-36 -121.5t-11.5 -175.5zM480 1376l64 -96l640 384l-128 192z" />
<glyph unicode="&#xf4;" horiz-adv-x="1664" d="M128 584q0 177 38 293t122 184t218 95.5t326 27.5t326 -27.5t218 -95.5t122 -184t38 -293t-38 -294t-122 -186t-218 -97.5t-326 -28.5t-326 28.5t-218 97.5t-122 186t-38 294zM320 584q0 -96 7 -167t26.5 -122t54.5 -83t92 -51t138.5 -26t193.5 -7q96 0 171.5 4.5 t132 20.5t96.5 45.5t64.5 80.5t36 125.5t11.5 179.5q0 103 -11.5 175.5t-36 121.5t-64.5 77.5t-96.5 43t-132 18.5t-171.5 4t-171.5 -4t-132 -18.5t-96.5 -43t-64.5 -77.5t-36 -121.5t-11.5 -175.5zM416 1376l128 -96l288 448l288 -448l128 96l-320 480h-192z" />
<glyph unicode="&#xf5;" horiz-adv-x="1664" d="M128 584q0 177 38 293t122 184t218 95.5t326 27.5t326 -27.5t218 -95.5t122 -184t38 -293t-38 -294t-122 -186t-218 -97.5t-326 -28.5t-326 28.5t-218 97.5t-122 186t-38 294zM320 584q0 -96 7 -167t26.5 -122t54.5 -83t92 -51t138.5 -26t193.5 -7q96 0 171.5 4.5 t132 20.5t96.5 45.5t64.5 80.5t36 125.5t11.5 179.5q0 103 -11.5 175.5t-36 121.5t-64.5 77.5t-96.5 43t-132 18.5t-171.5 4t-171.5 -4t-132 -18.5t-96.5 -43t-64.5 -77.5t-36 -121.5t-11.5 -175.5zM384 1344h192q0 31 4 50t12 29t20 13.5t28 3.5q45 0 83.5 -15t81.5 -33 t95 -33t124 -15q36 0 80.5 12.5t83.5 42t65.5 78.5t26.5 123h-192q0 -30 -4 -49t-12 -29.5t-20 -14t-28 -3.5q-45 0 -83.5 15t-81.5 33.5t-95 33.5t-124 15q-36 0 -80.5 -11.5t-83.5 -40.5t-65.5 -79t-26.5 -126z" />
<glyph unicode="&#xf6;" horiz-adv-x="1664" d="M128 584q0 177 38 293t122 184t218 95.5t326 27.5t326 -27.5t218 -95.5t122 -184t38 -293t-38 -294t-122 -186t-218 -97.5t-326 -28.5t-326 28.5t-218 97.5t-122 186t-38 294zM320 584q0 -96 7 -167t26.5 -122t54.5 -83t92 -51t138.5 -26t193.5 -7q96 0 171.5 4.5 t132 20.5t96.5 45.5t64.5 80.5t36 125.5t11.5 179.5q0 103 -11.5 175.5t-36 121.5t-64.5 77.5t-96.5 43t-132 18.5t-171.5 4t-171.5 -4t-132 -18.5t-96.5 -43t-64.5 -77.5t-36 -121.5t-11.5 -175.5zM352 1344h192v192h-192v-192zM1120 1344h192v192h-192v-192z" />
<glyph unicode="&#xf7;" horiz-adv-x="1280" d="M128 512h1024v160h-1024v-160zM576 192h192v192h-192v-192zM576 768h192v192h-192v-192z" />
<glyph unicode="&#xf8;" horiz-adv-x="1664" d="M128 544q0 168 38 279t122 177t218 93t326 27q76 0 143 -5l81 197l160 -64l-64 -154q3 -1 6 -1q134 -27 218 -93t122 -177t38 -279t-38 -279t-122 -177t-218 -93t-326 -27q-76 0 -143 5l-81 -197l-160 64l63 154q-2 1 -5 1q-134 27 -218 93t-122 177t-38 279zM320 544 q0 -88 7 -153t26.5 -111.5t54.5 -75.5t92 -46q32 -10 72 -17l338 818q-37 1 -78 1q-144 0 -242 -11t-158 -53t-86 -125t-26 -227zM753 128h79q144 0 242 11t158 53t86 125t26 227t-26 227t-86 125q-55 38 -141 50z" />
<glyph unicode="&#xf9;" horiz-adv-x="1602" d="M128 512l1 640h192v-640q0 -107 16 -180.5t64 -118.5t136 -65t232 -20q156 0 255.5 23t156.5 65t78.5 101t21.5 131v704h192v-1152h-192v192q-14 -31 -47 -68.5t-99 -69.5t-170.5 -54t-259.5 -22q-129 0 -221.5 15.5t-157 46t-103.5 75.5t-60 104.5t-28 132.5t-7 160z M449 1664l128 192l576 -480l-64 -96z" />
<glyph unicode="&#xfa;" horiz-adv-x="1602" d="M128 512l1 640h192v-640q0 -107 16 -180.5t64 -118.5t136 -65t232 -20q156 0 255.5 23t156.5 65t78.5 101t21.5 131v704h192v-1152h-192v192q-14 -31 -47 -68.5t-99 -69.5t-170.5 -54t-259.5 -22q-129 0 -221.5 15.5t-157 46t-103.5 75.5t-60 104.5t-28 132.5t-7 160z M449 1376l64 -96l640 384l-128 192z" />
<glyph unicode="&#xfb;" horiz-adv-x="1602" d="M128 512l1 640h192v-640q0 -107 16 -180.5t64 -118.5t136 -65t232 -20q156 0 255.5 23t156.5 65t78.5 101t21.5 131v704h192v-1152h-192v192q-14 -31 -47 -68.5t-99 -69.5t-170.5 -54t-259.5 -22q-129 0 -221.5 15.5t-157 46t-103.5 75.5t-60 104.5t-28 132.5t-7 160z M385 1376l128 -96l288 448l288 -448l128 96l-320 480h-192z" />
<glyph unicode="&#xfc;" horiz-adv-x="1602" d="M128 512l1 640h192v-640q0 -107 16 -180.5t64 -118.5t136 -65t232 -20q156 0 255.5 23t156.5 65t78.5 101t21.5 131v704h192v-1152h-192v192q-14 -31 -47 -68.5t-99 -69.5t-170.5 -54t-259.5 -22q-129 0 -221.5 15.5t-157 46t-103.5 75.5t-60 104.5t-28 132.5t-7 160z M321 1344h192v192h-192v-192zM1089 1344h192v192h-192v-192z" />
<glyph unicode="&#xfd;" horiz-adv-x="1568" d="M64 1152l608 -1152h64q-16 -32 -28.5 -61t-30.5 -54t-45 -45t-71.5 -34.5t-110.5 -22t-162 -7.5v-160q112 0 194 10.5t141.5 30t100.5 47.5t71 63.5t53.5 78t47.5 90.5l32 64l576 1152h-224l-480 -1024l-512 1024h-224zM432 1376l64 -96l640 384l-128 192z" />
<glyph unicode="&#xfe;" horiz-adv-x="1600" d="M128 -384h192v512q25 -45 88 -80q27 -15 65 -29.5t90 -25.5t118.5 -18t150.5 -7q192 0 326 27t218 93t122 177t38 279t-38 279t-122 177t-218 93t-326 27q-84 0 -150.5 -7t-118.5 -18t-90 -25.5t-65 -29.5q-63 -35 -88 -79v575h-192v-1920zM320 547q0 95 11.5 163 t36.5 113.5t64.5 72.5t96.5 41.5t132 18.5t171 4q112 0 193.5 -6.5t138.5 -23.5t92.5 -46t55 -75.5t26 -111.5t6.5 -153t-6.5 -153t-26 -111.5t-55 -75.5t-92.5 -46t-138.5 -23.5t-193.5 -6.5q-96 0 -171 4t-132 18.5t-96.5 42t-64.5 74t-36.5 115t-11.5 165.5z" />
<glyph unicode="&#xff;" horiz-adv-x="1568" d="M64 1152l608 -1152h64q-16 -32 -28.5 -61t-30.5 -54t-45 -45t-71.5 -34.5t-110.5 -22t-162 -7.5v-160q112 0 194 10.5t141.5 30t100.5 47.5t71 63.5t53.5 78t47.5 90.5l32 64l576 1152h-224l-480 -1024l-512 1024h-224zM304 1344h192v192h-192v-192zM1072 1344h192v192 h-192v-192z" />
<glyph unicode="&#x131;" d="M128 0h192v1088h-192v-1088z" />
<glyph unicode="&#x152;" horiz-adv-x="3520" d="M128 768q0 136 3 248t22.5 201t62 155t120.5 109.5t198.5 65t296.5 17.5h578q185 4 309 -20t202 -72v64h1536v-160h-1344v-512h1280v-160h-1280v-544h1344v-160h-1536v64q-78 -48 -202 -72t-309 -24h-578q-176 0 -296.5 21.5t-198.5 65t-120.5 109.5t-62 155t-22.5 201 t-3 248zM320 768q0 -144 2.5 -247.5t16.5 -174.5t44.5 -114t87.5 -66t144.5 -30.5t215.5 -7.5h578q127 0 214.5 7.5t144.5 30.5t88 66t45 114t16.5 174.5t2.5 247.5t-2.5 247.5t-16.5 174.5t-45 114t-87.5 66t-144 28.5t-215.5 5.5h-578q-128 4 -215.5 -3.5t-144.5 -30.5 t-88 -66t-45 -114t-16 -174.5t-2 -247.5z" />
<glyph unicode="&#x153;" horiz-adv-x="2816" d="M128 544q0 -168 38 -279t122 -177t218 -93t326 -27q117 0 217.5 17t179 47t133 71t78.5 89q24 -48 78 -89t133 -71t179.5 -47t217.5 -17q180 0 302.5 19t197.5 61t107.5 109t32.5 163h-192q0 -60 -20.5 -97.5t-71.5 -58.5t-137.5 -28.5t-218.5 -7.5q-144 0 -242 10.5 t-158 49.5t-86 115.5t-26 208.5h1136l16 64q0 79 -9.5 150t-35 131t-70 109t-116 83t-172 52.5t-237.5 18.5q-117 0 -222 -17t-187 -47t-134.5 -71t-64.5 -89q-12 46 -65 86.5t-134.5 71t-186.5 48.5t-222 18q-192 0 -326 -27t-218 -93t-122 -177t-38 -279zM320 544 q0 144 26 227t86 125t158 53t242 11t242 -11t158 -53t86 -125t26 -227t-26 -227t-86 -125t-158 -53t-242 -11q-112 0 -193.5 6.5t-138.5 23.5t-92 46t-54.5 75.5t-26.5 111.5t-7 153zM1536 640q0 108 26 171.5t86 96.5t158 42.5t242 9.5q120 0 205 -14t139 -50t79 -98 t25 -158h-960z" />
<glyph unicode="&#x178;" horiz-adv-x="2200" d="M128 1536h256l704 -752l704 752h256l-864 -896v-640h-192v640zM620 1792h192v192h-192v-192zM1388 1792h192v192h-192v-192z" />
<glyph unicode="&#x2c6;" horiz-adv-x="1088" d="M128 1376l128 -96l288 448l288 -448l128 96l-320 480h-192z" />
<glyph unicode="&#x2da;" horiz-adv-x="1280" d="M288 1600q0 -60 19 -117.5t61 -102.5t109 -72.5t163 -27.5t163 27.5t109 72.5t61 102.5t19 117.5t-19 117.5t-61 102.5t-109 72.5t-163 27.5t-163 -27.5t-109 -72.5t-61 -102.5t-19 -117.5zM448 1600q0 36 7.5 70.5t28.5 61.5t58.5 43.5t97.5 16.5t97.5 -16.5t58.5 -43.5 t28.5 -61.5t7.5 -70.5t-7.5 -70.5t-28.5 -61.5t-58.5 -43.5t-97.5 -16.5t-97.5 16.5t-58.5 43.5t-28.5 61.5t-7.5 70.5z" />
<glyph unicode="&#x2dc;" horiz-adv-x="1152" d="M128 1344h192q0 31 4 50t12 29t20 13.5t28 3.5q45 0 83.5 -15t81.5 -33t95 -33t124 -15q36 0 80.5 12.5t83.5 42t65.5 78.5t26.5 123h-192q0 -30 -4 -49t-12 -29.5t-20 -14t-28 -3.5q-45 0 -83.5 15t-81.5 33.5t-95 33.5t-124 15q-36 0 -80.5 -11.5t-83.5 -40.5 t-65.5 -79t-26.5 -126z" />
<glyph unicode="&#x2000;" horiz-adv-x="1184" />
<glyph unicode="&#x2001;" horiz-adv-x="2368" />
<glyph unicode="&#x2002;" horiz-adv-x="1184" />
<glyph unicode="&#x2003;" horiz-adv-x="2368" />
<glyph unicode="&#x2004;" horiz-adv-x="789" />
<glyph unicode="&#x2005;" horiz-adv-x="592" />
<glyph unicode="&#x2006;" horiz-adv-x="394" />
<glyph unicode="&#x2007;" horiz-adv-x="394" />
<glyph unicode="&#x2008;" horiz-adv-x="296" />
<glyph unicode="&#x2009;" horiz-adv-x="473" />
<glyph unicode="&#x200a;" horiz-adv-x="131" />
<glyph unicode="&#x2010;" horiz-adv-x="1024" d="M128 512v160h768v-160h-768z" />
<glyph unicode="&#x2011;" horiz-adv-x="1024" d="M128 512v160h768v-160h-768z" />
<glyph unicode="&#x2012;" horiz-adv-x="1024" d="M128 512v160h768v-160h-768z" />
<glyph unicode="&#x2013;" horiz-adv-x="1088" d="M128 512h832v160h-832v-160z" />
<glyph unicode="&#x2014;" horiz-adv-x="1088" d="M0 512h1088v160h-1088v-160z" />
<glyph unicode="&#x2018;" horiz-adv-x="512" d="M128 1152h128l128 384h-192z" />
<glyph unicode="&#x2019;" horiz-adv-x="512" d="M128 1152h128l128 384h-192z" />
<glyph unicode="&#x201a;" d="M64 -256h128l128 384h-192z" />
<glyph unicode="&#x201c;" horiz-adv-x="768" d="M128 1152h128l128 384h-192zM384 1152h128l128 384h-192z" />
<glyph unicode="&#x201d;" horiz-adv-x="832" d="M128 1152h128l128 384h-192zM448 1152h128l128 384h-192z" />
<glyph unicode="&#x201e;" horiz-adv-x="832" d="M128 -192h128l128 384h-192zM448 -192h128l128 384h-192z" />
<glyph unicode="&#x2022;" horiz-adv-x="1280" d="M384 512q0 -72 19.5 -121t54 -79t81.5 -43t101 -13t100.5 13t81 43t54.5 79t20 121t-20 121t-54.5 79t-81 43t-100.5 13t-101 -13t-81.5 -43t-54 -79t-19.5 -121z" />
<glyph unicode="&#x2026;" horiz-adv-x="1344" d="M1024 0v192h192v-192h-192zM576 0v192h192v-192h-192zM128 0v192h192v-192h-192z" />
<glyph unicode="&#x202f;" horiz-adv-x="473" />
<glyph unicode="&#x2039;" horiz-adv-x="896" d="M128 512l544 -384l96 128l-512 352l512 352l-96 128l-544 -384v-192z" />
<glyph unicode="&#x203a;" horiz-adv-x="896" d="M128 256l96 -128l544 384v192l-544 384l-96 -128l512 -352z" />
<glyph unicode="&#x2044;" horiz-adv-x="1023" d="M64 0h192l704 1536h-192z" />
<glyph unicode="&#x205f;" horiz-adv-x="592" />
<glyph unicode="&#x2074;" horiz-adv-x="1472" d="M128 192h832v-192h192v192h192v160h-192v736h-256l-768 -704v-192zM320 352l640 608v-608h-640z" />
<glyph unicode="&#x20ac;" horiz-adv-x="2042" d="M129 811q0 -80 0.5 -167.5t9.5 -173t31.5 -164.5t66.5 -141t114 -102t174 -49q11 -1 33.5 -2.5t51.5 -2.5t60.5 -2.5t60.5 -3t51.5 -2.5t33.5 -1h145h172q19 0 49 0.5t64 1t69.5 1.5t65.5 1.5t51 1t27 0.5q106 6 183.5 30t130.5 71t83.5 121t42.5 180q5 49 8 93.5t4.5 87 t1.5 85.5v92v153q0 82 -7.5 165t-27 160.5t-58.5 140.5t-102 106t-157 55q-17 2 -59 5.5t-89.5 7.5t-89.5 6.5t-59 3.5h-57h-74q-12 -1 -48.5 -1.5t-85.5 -1t-104.5 -1.5t-104.5 -1.5t-85.5 -1.5t-48.5 -1q-81 -1 -159 -14t-144 -46t-115 -88.5t-72 -140.5 q-15 -56 -23 -113.5t-11 -115.5t-3 -116v-116zM318 664v180v164q0 7 2.5 33t5.5 57t6.5 60t5.5 44q8 55 34 90.5t64 57.5t84.5 32.5t95 14.5t96.5 4t89 2q7 0 33.5 1t57 2t56.5 2t33 1h56q110 0 213.5 -4t220.5 -10q70 -2 117.5 -29t77 -71t42.5 -102t13 -122v-567 q0 -79 -11 -138t-40 -99.5t-80 -63.5t-131 -31q-12 -1 -47 -3t-74.5 -4t-76 -3.5t-52.5 -1.5q-2 -1 -21 -1.5t-44 -0.5h-52h-41h-46h-57q-29 0 -51 0.5t-26 1.5q-37 0 -81 1t-90.5 3t-91.5 6t-83 10q-51 8 -86 33t-57.5 61t-34 79.5t-15.5 88.5q-2 14 -4 46t-4.5 67t-4 66 t-1.5 43zM1006 1437q0 3 2 3q3 0 3 -3t-3 -3q-2 0 -2 3z" />
<glyph unicode="&#x2122;" horiz-adv-x="2752" d="M128 1408h384v-704h192v704h384v128h-960v-128zM1216 704h192v704l415 -704h194l415 683v-683h192v832h-306l-398 -672l-384 672h-320v-832z" />
<glyph unicode="&#xe000;" horiz-adv-x="1150" d="M0 1150h1150v-1150h-1150v1150z" />
<glyph unicode="&#xfb01;" horiz-adv-x="1632" d="M128 1006v146h192v10q0 117 26 195t86 125t158.5 66.5t242.5 19.5h223v-160h-224q-91 0 -152 -4t-98.5 -27t-53.5 -73t-16 -142v-10h544v-146h-544v-1006h-192v1006h-192zM1312 0v1152h192v-1152h-192zM1312 1344v192h192v-192h-192z" />
<glyph unicode="&#xfb02;" horiz-adv-x="1632" d="M128 1006v146h192v10q0 117 26 195t86 125t158.5 66.5t242.5 19.5h223v-160h-224q-91 0 -152 -4t-98.5 -27t-53.5 -73t-16 -142v-10h544v-146h-544v-1006h-192v1006h-192zM1312 0v1536h192v-1536h-192z" />
<glyph unicode="&#xfb03;" horiz-adv-x="2688" d="M2304 0v1152h192v-1152h-192zM2304 1344v192h192v-192h-192zM1184 1006v146h192v10q0 117 26 195t86 125t158.5 66.5t242.5 19.5h223v-160h-224q-91 0 -152 -4t-98.5 -27t-53.5 -73t-16 -142v-10h544v-146h-544v-1006h-192v1006h-192zM128 1006v146h192v10q0 117 26 195 t86 125t158.5 66.5t242.5 19.5h223v-160h-224q-91 0 -152 -4t-98.5 -27t-53.5 -73t-16 -142v-10h544v-146h-544v-1006h-192v1006h-192z" />
<glyph unicode="&#xfb04;" horiz-adv-x="2688" d="M2304 0v1536h192v-1536h-192zM1184 1006v146h192v10q0 117 26 195t86 125t158.5 66.5t242.5 19.5h223v-160h-224q-91 0 -152 -4t-98.5 -27t-53.5 -73t-16 -142v-10h544v-146h-544v-1006h-192v1006h-192zM128 1006v146h192v10q0 117 26 195t86 125t158.5 66.5t242.5 19.5 h223v-160h-224q-91 0 -152 -4t-98.5 -27t-53.5 -73t-16 -142v-10h544v-146h-544v-1006h-192v1006h-192z" />
</font>
</defs>
</svg>
